Pop

Beyonce Naughty Girl Divx HDTV [h33t][Dave3737]

  • Download 5x Faster
  • Download torrent
  • Direct Download
  • Rate this torrent +  |  -
Beyonce Naughty Girl Divx HDTV [h33t][Dave3737]

Free and Direct Download with Usenet.nl 300GB+ free


Torrent info

Name:Beyonce Naughty Girl Divx HDTV [h33t][Dave3737]

Total Size: 112.17 MB

Magnet: Magnet Link

Seeds: 4

Leechers: 1

Stream: Watch Online @ Movie4u

Last Updated: 2011-01-03 18:29:37 (Update Now)

Torrent added: 2009-08-28 02:05:53





Torrent Files List


Beyonce Naughty Girl Divx[h33t][Dave3737].avi (Size: 112.17 MB) (Files: 4)

 Beyonce Naughty Girl Divx[h33t][Dave3737].avi

112.17 MB

 Beyonce Naughty Girl Xvid [h33t][Dave3737].avi.txt

2.85 KB

 h33t - Dave 3737 Torrent list.URL

0.07 KB

 tracked_by_h33t_com.txt

0.02 KB
 

Announce URL: http://www.h33t.com:3310/announce

Torrent description

Beyonce Naughty Girl Divx HDTV [h33t][Dave3737] preview 0


Beyonce Naughty Girl Divx .avi

Format : DivX
Format/Info : Hack of AVI
File size : 112 MiB
Duration : 3mn 26s
Overall bit rate : 4 567 Kbps

Video
Format : MPEG-4 Visual
Format settings, BVOP : Yes
Format settings, QPel : No
Format settings, GMC : No warppoints
Format settings, Matrix : Default
Muxing mode : Packed bitstream
Codec ID : DX50
Codec ID/Hint : DivX 5
Duration : 3mn 26s
Bit rate : 4 301 Kbps
Width : 1 280 pixels
Height : 720 pixels
Display aspect ratio : 16/9
Frame rate : 25.000 fps
Resolution : 24 bits
Colorimetry : 4:2:0
Scan type : Progressive
Bits/(Pixel*Frame) : 0.187
Stream size : 106 MiB (94%)
Title : Main
Writing library : DivX 6.7.0 (UTC 2007-09-20)

Audio
Format : MPEG Audio
Format version : Version 1
Format profile : Layer 3
Codec ID : 55
Codec ID/Hint : MP3
Duration : 3mn 26s
Bit rate mode : Constant
Bit rate : 256 Kbps
Channel(s) : 2 channels
Sampling rate : 48.0 KHz
Resolution : 16 bits
Stream size : 6.29 MiB (6%)
Alignment : Split accross interleaves
Interleave, duration : 40 ms (1.00 video frame)
Interleave, preload duration : 500 ms
Title : Audio
Writing library : LAME3.97 (beta)




[color=red]
Torrent Files:[/color]

Dave3737 h33t user details torrent link php.

tracked_by_h33t_com txt.

Beyonce Naughty Girl Divx .avi

Beyonce Naughty Girl Divx .avi Info txt



[color=red]My Torrents[/color]

related torrents

Torrent name

health leech seeds Size
 

comments (0)

Main Menu