Pop

Beyonce Dangerously In Love[2003]Eac Flac cUE]King Of Colombo[Tnt Village]

  • Download 5x Faster
  • Download torrent
  • Direct Download
  • Rate this torrent +  |  -
Beyonce Dangerously In Love[2003]Eac Flac cUE]King Of Colombo[Tnt Village]

Free and Direct Download with Usenet.nl 300GB+ free


Torrent info

Name:Beyonce Dangerously In Love[2003]Eac Flac cUE]King Of Colombo[Tnt Village]

Total Size: 444.67 MB

Magnet: Magnet Link

Seeds: 2

Leechers: 0

Stream: Watch Online @ Movie4u

Last Updated: 2015-09-12 19:33:30 (Update Now)

Torrent added: 2009-08-28 02:04:06





Torrent Files List


Beyonce - Dangerously In Love - Back.jpg (Size: 444.67 MB) (Files: 9)

 Beyonce - Dangerously In Love - Back.jpg

328.19 KB

 Beyonce - Dangerously In Love - CD.jpg

62.28 KB

 Beyonce - Dangerously In Love - Front.jpg

27.56 KB

 Beyonce - Dangerously In Love - Inlay.jpg

38.51 KB

 Beyonce - Dangerously In Love - Inside.jpg

74.09 KB

 Beyonce - Dangerously In Love.cue

1.86 KB

 Beyonce - Dangerously In Love.flac

443.01 MB

 Dangerously In Love.log

4.39 KB

 folder.jpg

1.14 MB
 

tracker

leech seeds
 

Torrent description

Autore:Beyonce
Titolo:Dangerously In Love
Anno:2003
Genere:Pop/R&B
Etichetta: Columbia
fonte cd /originale /cdda

:::->Tracklist<-:::

1. Crazy In Love - (featuring Jay-Z)
2. Naughty Girl
3. Baby Boy - (featuring Sean Paul)
4. Hip Hop Star - (featuring Big Boi/Sleepy Brown)
5. Be With You
6. Me, Myself And I
7. Yes
8. Signs - (featuring Missy Elliott)
9. Speechless
10. That's How You Like It - (featuring Jay-Z)
11. Closer I Get To You, The - (with Luther Vandross)
12. Dangerously In Love 2
13. Beyonce Interlude
14. Gift From Virgo
15.Work it out
16.bonnie & clyde 03
17.Daddy [non incluso nella cover]

Exact Audio Copy V0.99 prebeta 3 from 28. July 2007

EAC extraction logfile from 23. April 2008, 16:41

Beyonce / Dangerously In Love

Used drive : _NEC DVD_RW ND-3550A Adapter: 5 ID: 0

Read mode : Secure
Utilize accurate stream : Yes
Defeat audio cache : Yes
Make use of C2 pointers : No

Read offset correction : 48
Overread into Lead-In and Lead-Out : No
Fill up missing offset samples with silence : Yes
Delete leading and trailing silent blocks : No
Null samples used in CRC calculations : No
Used interface : Installed external ASPI interface

Used output format : User Defined Encoder
Selected bitrate : 768 kBit/s
Quality : High
Add ID3 tag : No
Command line compressor : C:\Programmi\Exact Audio Copy\FLAC\FLAC.EXE
Additional command line options : -6 -V -T "ARTIST=%a" -T "TITLE=%t" -T "ALBUM=%g" -T "DATE=%y" -T "TRACKNUMBER=%n" -T "GENRE=%m" -T "COMMENT=%e" %s -o %d


TOC of the extracted CD

Track | Start | Length | Start sector | End sector
---------------------------------------------------------
1 | 0:00.00 | 3:55.70 | 0 | 17694
2 | 3:55.70 | 3:28.45 | 17695 | 33339
3 | 7:24.40 | 4:04.65 | 33340 | 51704
4 | 11:29.30 | 3:42.40 | 51705 | 68394
5 | 15:11.70 | 4:20.12 | 68395 | 87906
6 | 19:32.07 | 5:01.13 | 87907 | 110494
7 | 24:33.20 | 4:19.07 | 110495 | 129926
8 | 28:52.27 | 4:58.45 | 129927 | 152321
9 | 33:50.72 | 6:00.33 | 152322 | 179354
10 | 39:51.30 | 3:39.12 | 179355 | 195791
11 | 43:30.42 | 4:57.60 | 195792 | 218126
12 | 48:28.27 | 4:53.08 | 218127 | 240109
13 | 53:21.35 | 0:16.27 | 240110 | 241336
14 | 53:37.62 | 2:45.13 | 241337 | 253724
15 | 56:23.00 | 4:06.05 | 253725 | 272179
16 | 60:29.05 | 3:26.20 | 272180 | 287649
17 | 63:55.25 | 4:57.60 | 287650 | 309984


Range status and errors

Selected range

Filename D:\Documents and Settings\salvo.SN116508160310\Documenti\Beyonce - Dangerously In Love.wav

Peak level 100.0 %
Range quality 100.0 %
Test CRC 9FA7566A
Copy CRC 9FA7566A
Copy OK

No errors occurred


AccurateRip summary

Track 1 cannot be verified as accurate (confidence 3) [A6F51F74], AccurateRip returned [B8C0C3A2]
Track 2 cannot be verified as accurate (confidence 3) [CDA0BD7D], AccurateRip returned [6CB0ADDB]
Track 3 cannot be verified as accurate (confidence 3) [E0153178], AccurateRip returned [EE0541D8]
Track 4 cannot be verified as accurate (confidence 3) [66F5C733], AccurateRip returned [3E6F5033]
Track 5 cannot be verified as accurate (confidence 3) [1B98094B], AccurateRip returned [837352EB]
Track 6 cannot be verified as accurate (confidence 3) [3B823F5B], AccurateRip returned [DEA53B23]
Track 7 cannot be verified as accurate (confidence 3) [CFBDA79E], AccurateRip returned [62D43612]
Track 8 cannot be verified as accurate (confidence 3) [523EC1C2], AccurateRip returned [82422522]
Track 9 cannot be verified as accurate (confidence 3) [D2C934B3], AccurateRip returned [3BBB743B]
Track 10 cannot be verified as accurate (confidence 3) [ED7BE927], AccurateRip returned [09DCC32F]
Track 11 cannot be verified as accurate (confidence 3) [2B865CEA], AccurateRip returned [5B6D562A]
Track 12 cannot be verified as accurate (confidence 3) [F90E15A3], AccurateRip returned [EC2673AD]
Track 13 cannot be verified as accurate (confidence 3) [73FB4927], AccurateRip returned [0B5E5035]
Track 14 cannot be verified as accurate (confidence 3) [28CE413A], AccurateRip returned [69EB8A02]
Track 15 cannot be verified as accurate (confidence 3) [F59D5070], AccurateRip returned [427CC5F8]
Track 16 cannot be verified as accurate (confidence 3) [F76CC6FE], AccurateRip returned [FFE260F6]
Track 17 cannot be verified as accurate (confidence 2) [DF906397], AccurateRip returned [BF5356BB]

No tracks could be verified as accurate
You may have a different pressing from the one(s) in the database

End of status report




related torrents

Torrent name

health leech seeds Size
 

comments (0)

Main Menu