Pop

Beyonce Upgrade U (feat Jay Z) avi[h33t][Dave3737]

  • Download 5x Faster
  • Download torrent
  • Direct Download
  • Rate this torrent +  |  -
Beyonce Upgrade U (feat Jay Z) avi[h33t][Dave3737]

Free and Direct Download with Usenet.nl 300GB+ free


Torrent info

Name:Beyonce Upgrade U (feat Jay Z) avi[h33t][Dave3737]

Total Size: 38.92 MB

Magnet: Magnet Link

Seeds: 4

Leechers: 1

Stream: Watch Online @ Movie4u

Last Updated: 2010-12-01 21:56:26 (Update Now)

Torrent added: 2009-08-28 02:04:05





Torrent Files List


Beyonce - Upgrade U (feat. Jay-Z).avi (Size: 38.92 MB) (Files: 4)

 Beyonce - Upgrade U (feat. Jay-Z).avi

38.92 MB

 Beyonce - Upgrade U (feat. Jay-Z).avi.txt

2.94 KB

 h33t - Dave 3737 Torrent list.URL

0.07 KB

 tracked_by_h33t_com.txt

0.02 KB
 

Announce URL: http://www.h33t.com:3310/announce

Torrent description




Beyonce  Upgrade U (feat Jay Z) avi[h33t][Dave3737] preview 0


[color=red]Beyonce - Upgrade U (feat. Jay-Z).avi[/color]


Format : AVI
Format/Info : Audio Video Interleave
File size : 38.9 MiB
Duration : 4mn 31s
Overall bit rate : 1 204 Kbps
Writing application : VirtualDubMod 1.5.10.2 (build 2540/release)
Writing library : VirtualDubMod build 2540/release

Video
Format : MPEG-4 Visual
Format profile : Streaming [email protected]
Format settings, BVOP : Yes
Format settings, QPel : Yes
Format settings, GMC : No warppoints
Format settings, Matrix : Default
Codec ID : XVID
Codec ID/Hint : XviD
Duration : 4mn 31s
Bit rate : 1 070 Kbps
Width : 512 pixels
Height : 384 pixels
Display aspect ratio : 4/3
Frame rate : 23.976 fps
Resolution : 24 bits
Colorimetry : 4:2:0
Scan type : Progressive
Bits/(Pixel*Frame) : 0.227
Stream size : 34.6 MiB (89%)
Writing library : XviD 1.2.0.dev47 (UTC 2006-11-01)

Audio
Format : MPEG Audio
Format version : Version 1
Format profile : Layer 3
Codec ID : 55
Codec ID/Hint : MP3
Duration : 4mn 31s
Bit rate mode : Variable
Bit rate : 121 Kbps
Channel(s) : 2 channels
Sampling rate : 48.0 KHz
Resolution : 16 bits
Stream size : 3.90 MiB (10%)
Alignment : Aligned on interleaves
Interleave, duration : 24 ms (0.58 video frame)
Interleave, preload duration : 384 ms
Writing library : LAME3.90



[color=red]
Torrent Files:[/color]

[color=violet]Dave3737 h33t user details torrent link php.

tracked_by_h33t_com txt.

Beyonce - Upgrade U (feat. Jay-Z).avi

Beyonce - Upgrade U (feat. Jay-Z).avi[/color]



[color=red]My Torrents[/color]





related torrents

Torrent name

health leech seeds Size
 

comments (0)

Main Menu