Horror

Shaun of the Dead 2004 DVDRIP ZEKTORM

  • Download 5x Faster
  • Download torrent
  • Direct Download
  • Rate this torrent +  |  -
Shaun of the Dead 2004 DVDRIP ZEKTORM

Anonymous and Direct Download 300GB+ free


Torrent info

Name:Shaun of the Dead 2004 DVDRIP ZEKTORM

Total Size: 715.41 MB

Magnet: Magnet Link

Seeds: 0

Leechers: 0

Stream: Watch Online @ Movie4u

Last Updated: 0000-00-00 00:00:00 (Update Now)

Torrent added: 2009-08-28 01:53:25




Torrent Files List


READ.hlp (Size: 715.41 MB) (Files: 4)

 READ.hlp

12.95 KB

 Shaun.of.the.Dead.2004.DVDRIP-ZEKTORM.mp4

700.09 MB

 Subs

  Shaun.of.the.Dead.2004.DVDRIP-ZEKTORM.idx

176.75 KB

  Shaun.of.the.Dead.2004.DVDRIP-ZEKTORM.sub

15.14 MB
 

Announce URL:

Torrent description

Title : Shaun of the Dead
Year : 2004
Genre : Comedy | Horror | Romance
iMDB Rate : User Rating: 8.0/10 102,709 votes
iMDB URL : http://www.imdb.com/title/tt0365748/
Awards : 6 wins & 16 nominations

Complete name : Shaun.of.the.Dead.2004.DVDRIP-ZEKTORM.mp4
Format : MPEG-4
Format profile : Base Media
Codec ID : isom
File size : 700 MiB
Duration : 1h 35mn
Overall bit rate : 1028 Kbps
Subtitles : English, Portuguese, Spanish (Format: VobSub)
Source : DVD PAL
Encoded date : UTC 2009-02-07 11:53:56

Video
Format : AVC
Format/Info : Advanced Video Codec
Format profile : [email protected]
Format settings, CABAC : Yes
Format settings, ReFrames : 10 frames
Codec ID : avc1
Codec ID/Info : Advanced Video Coding
Duration : 1h 35mn
Bit rate mode : Variable
Bit rate : 945 Kbps
Maximum bit rate : 4517 Kbps
Width : 704 pixels
Height : 432 pixels
Display aspect ratio : 2.35
Frame rate mode : Constant
Frame rate : 25.000 fps
Resolution : 24 bits
Colorimetry : 4:2:0
Scan type : Progressive
Bits/(Pixel*Frame) : 0.124
Stream size : 644 MiB (92%)
Title : Video
Writing library : x264 core 60 r900 a9af942

Audio
Format : AAC
Format/Info : Advanced Audio Codec
Format version : Version 4
Format profile : LC
Format settings, SBR : Yes
Format settings, PS : No
Codec ID : 40
Duration : 1h 35mn
Bit rate mode : Variable
Bit rate : 79.6 Kbps
Maximum bit rate : 109 Kbps
Channel(s) : 2 channels
Channel positions : L R
Sampling rate : 48.0 KHz
Resolution : 16 bits
Stream size : 54.2 MiB (8%)
Title : English
Language : English

Notes : Convert to DVD with Nero

related torrents

Torrent name

health leech seeds Size
 


comments (0)

Main Menu