Horror

See no Evil Deutsch 2006 DVDrip Xvid [mnvv2 info]

  • Download 5x Faster
  • Download torrent
  • Direct Download
  • Rate this torrent +  |  -
See no Evil Deutsch 2006 DVDrip Xvid [mnvv2 info]

Anonymous and Free Direct Download 300GB+


Torrent info

Name:See no Evil Deutsch 2006 DVDrip Xvid [mnvv2 info]

Total Size: 701.39 MB

Magnet: Magnet Link

Seeds: 0

Leechers: 0

Stream: Watch Online @ Movie4u

Last Updated: 2015-09-03 09:36:26 (Update Now)

Torrent added: 2009-08-28 01:45:56



VPN For Torrents

Torrent Files List


cover.jpg (Size: 701.39 MB) (Files: 3)

 cover.jpg

33.75 KB

 Info.txt

2.98 KB

 See no Evil.avi

701.35 MB
 

tracker

leech seeds
 

Torrent description

See.no.EvilDeutsch.2006.DVDrip.Xvid


See no Evil 2006


Die erste Begegnung von Officer Williams (Steven Vidler) mit dem Serienkiller Jacob Goodnight (Glen Jacobs), dessen Spezialitt das Entfernen der Augen seiner noch lebenden Opfern ist, ging für ersteren nochmal gut aus. Zwar verlor er eine Hand, doch kam er mit dem Leben davon. Zu diesem Zeitpunkt ahnte er noch nicht, dass es nicht das letzte Treffen mit dem hünenhaften Killer gewesen sein sollte. Vier Jahre spter betreut Williams mit einer Kollegin eine Gruppe straffällig gewordener Jugendlicher, die im Rahmen ihres Resozialisierungsprogramms ein Hotel renovieren sollen. Natürlich haben Zoe (Rachael Taylor), Richie (Craig Horner), Michael (Luke Pegler), Kira (Samantha Noble), Melissa (Penny McNamee) und Christine (Christina Vidal) anderes im Sinn, als in dem heruntergekommenen Anwesen zu schuften. Manche machen sich deswegen auf die Suche nach einem Safe, der angeblich im Hotel versteckt sein soll, während die anderen ihrer Partylust frönen. Nicht lange nachdem in den ausgebrannten oberen Stockwerken die Leiche eines Unbekannten gefunden wird, müssen die Teenies um ihr eigenes Leben und ihre Augäpfel bangen.


Format : AVI
Format/Info : Audio Video Interleave
Dateigre : 701 MiB
Duration : 1h 23min
Gesamte Bitrate : 1168 Kbps
Verwendetes Programm : VirtualDubMod 1.5.10.2 (build 2542/release)
verwendete Encoder-Bibliothek : VirtualDubMod build 2542/release

Video
Format : MPEG-4 Visual
Format profile : Streaming [email protected]
Format settings, BVOP : Ja
Format settings, QPel : Nein
Format settings, GMC : No warpoints
Format settings, Matrix : Default
Muxing mode : Packet Bitstream
Codec ID : XVID
Codec ID/Hint : XviD
Duration : 1h 23min
Bitrate : 966 Kbps
Breite : 640 Pixel
Höhe : 352 Pixel
Bildseitenverhältnis : 16/9
Bildwiederholungsrate : 23.976 FPS
Auflösung : 8 bits
Colorimetry : 4:2:0
Scan type : Progressive
Bits/(Pixel*Frame) : 0.179
Stream size : 580 MiB
verwendete Encoder-Bibliothek : XviD 1.1.0 (UTC 2005-11-22)

Audio
Format : MPEG Audio
Format version : Version 1
Format profile : Layer 3
Codec ID : 55
Codec ID/Hint : MP3
Duration : 1h 23min
Bitraten-Modus : Constant
Bitrate : 192 Kbps
Kanäle : 2 Kanäle
Samplingrate : 48.0 KHz
Auflösung : 16 bits
Stream size : 115 MiB

related torrents

Torrent name

health leech seeds Size
 


comments (0)

Main Menu