Horror

Saw 4 TR EN DvDRip AC3 XviD Line

  • Download 5x Faster
  • Download torrent
  • Direct Download
  • Rate this torrent +  |  -
Saw 4 TR EN DvDRip AC3 XviD Line

Free and Direct Download with Usenet.nl 300GB+ free


Torrent info

Name:Saw 4 TR EN DvDRip AC3 XviD Line

Total Size: 1.36 GB

Magnet: Magnet Link

Seeds: 0

Leechers: 0

Stream: Watch Online @ Movie4u

Last Updated: 2010-11-17 23:06:39 (Update Now)

Torrent added: 2009-08-28 01:16:16





Torrent Files List


Saw 4 TR-EN DvDRip.AC3.XviD-Line.part01.rar (Size: 1.36 GB) (Files: 15)

 Saw 4 TR-EN DvDRip.AC3.XviD-Line.part01.rar

95.78 MB

 Saw 4 TR-EN DvDRip.AC3.XviD-Line.part02.rar

95.78 MB

 Saw 4 TR-EN DvDRip.AC3.XviD-Line.part03.rar

95.78 MB

 Saw 4 TR-EN DvDRip.AC3.XviD-Line.part04.rar

95.78 MB

 Saw 4 TR-EN DvDRip.AC3.XviD-Line.part05.rar

95.78 MB

 Saw 4 TR-EN DvDRip.AC3.XviD-Line.part06.rar

95.78 MB

 Saw 4 TR-EN DvDRip.AC3.XviD-Line.part07.rar

95.78 MB

 Saw 4 TR-EN DvDRip.AC3.XviD-Line.part08.rar

95.78 MB

 Saw 4 TR-EN DvDRip.AC3.XviD-Line.part09.rar

95.78 MB

 Saw 4 TR-EN DvDRip.AC3.XviD-Line.part10.rar

95.78 MB

 Saw 4 TR-EN DvDRip.AC3.XviD-Line.part11.rar

95.78 MB

 Saw 4 TR-EN DvDRip.AC3.XviD-Line.part12.rar

95.78 MB

 Saw 4 TR-EN DvDRip.AC3.XviD-Line.part13.rar

95.78 MB

 Saw 4 TR-EN DvDRip.AC3.XviD-Line.part14.rar

95.78 MB

 Saw 4 TR-EN DvDRip.AC3.XviD-Line.part15.rar

52.69 MB
 

Announce URL: http://phantombitz.com/announce.php?passkey=5c6937a9e157dbcfbc0f0682fc667c05

Torrent description

LINE
Saw 4 TR-EN DvDRip.AC3.XviD-Line
http://www.imdb.com/title/tt0890870/

Ripper :sykdL
Format : AVI
Format/Info : Audio Video Interleave
File size : 1.37 GiB
Duration : 1h 31mn
Overall bit rate : 2138 Kbps
Writing application : VirtualDubMod 1.5.4.1 (build 2178/release)
Writing library : VirtualDubMod build 2178/release
IAS1 : English
IAS2 : Turkish

Video
Format : MPEG-4 Visual
Format profile : Streaming [email protected]
Format settings, BVOP : No
Format settings, QPel : No
Format settings, GMC : No warppoints
Format settings, Matrix : Custom
Codec ID : XVID
Codec ID/Hint : XviD
Duration : 1h 31mn
Bit rate : 1745 Kbps
Width : 720 pixels
Height : 400 pixels
Display aspect ratio : 16/9
Frame rate : 25.000 fps
Resolution : 8 bits
Colorimetry : 4:2:0
Scan type : Progressive
Bits/(Pixel*Frame) : 0.242
Stream size : 1.12 GiB (82%)
Writing library : XviD 1.2.0.dev47 (UTC 2006-11-01)

Audio #1
Format : AC-3
Format/Info : Audio Coding 3
Codec ID : 2000
Duration : 1h 31mn
Bit rate mode : Constant
Bit rate : 192 Kbps
Channel(s) : 2 channels
Channel positions : L R
Sampling rate : 48.0 KHz
Stream size : 126 MiB (9%)
Alignment : Aligned on interleaves
Interleave, duration : 96 ms (2.40 video frames)
Interleave, preload duration : 96 ms

Audio #2
Format : AC-3
Format/Info : Audio Coding 3
Codec ID : 2000
Duration : 1h 31mn
Bit rate mode : Constant
Bit rate : 192 Kbps
Channel(s) : 2 channels
Channel positions : L R
Sampling rate : 48.0 KHz
Stream size : 126 MiB (9%)
Alignment : Aligned on interleaves
Interleave, duration : 96 ms (2.40 video frames)
Interleave, preload duration : 96 ms

related torrents

Torrent name

health leech seeds Size
 

comments (0)

Main Menu