Horror

Rogue 2007 MULTiSUBS DVDRip XviD Cocc

  • Download 5x Faster
  • Download torrent
  • Direct Download
  • Rate this torrent +  |  -
Rogue 2007 MULTiSUBS DVDRip XviD Cocc

Anonymous and Free Direct Download 300GB+


Torrent info

Name:Rogue 2007 MULTiSUBS DVDRip XviD Cocc

Total Size: 701.22 MB

Magnet: Magnet Link

Seeds: 0

Leechers: 0

Stream: Watch Online @ Movie4u

Last Updated: 2010-09-23 02:09:44 (Update Now)

Torrent added: 2009-08-28 00:58:09



VPN For Torrents

Torrent Files List


Rogue.2007.MULTiSUBS.DVDRip.XviD-Cocc.avi (Size: 701.22 MB) (Files: 2)

 Rogue.2007.MULTiSUBS.DVDRip.XviD-Cocc.avi

699.49 MB

 Sub.rar

1.73 MB
 

Announce URL: http://vip.tracker.thepiratebay.org:80/announce

Torrent description

Rogue (2007)

An idyllic wildlife cruise disintegrates into terror when a party
of tourists are stalked by a massive man-eating crocodile. Pete
McKell, a cynical American travel writer, joins a disparate group
of holiday-makers on a river cruise through the waters of Kakadu
National Park. Initially Pete clashes with their tour captain,
Kate, a feisty young woman who assumes he is just another
'city-slicker' in search of a quick thrill. After an uneventful day
cruising the river, Kate is reluctantly persuaded to steer their
boat into unexplored territory. They discover a secluded lake but
terror strikes when their craft receives a powerful blow from beneath
the murky depths and begins to sink. With little choice, she beaches
the vessel on the closest dry land -a tiny mud island. With a rising
tide and only half an hour of daylight left, fear grips the group as
they realize they are trapped in the lair of a 'rogue' crocodile,
governed only by its need to hunt and kill. Begrudgingly, Pete and
Kate join forces to keep hysteria at bay and in the process start to
see beyond their initial impressions. Their first attempt to escape
fails, but then Pete has an idea - they must trap the crocodile to
enable the group to flee to the other side of the island whilst Kate
swims for help. Pete volunteers to stand guard, but without warning,
the beast breaks free and targets Kate who fails to resurface. A
s darkness descends and the muddy waters rise, a terrifying struggle
ensues with only one probable outcome death.



Subtitles; Sv,No,Da,Fi,


IMDb http://www.imdb.com/title/tt0479528/



General
Complete name : Rogue.2007.MULTiSUBS.DVDRip.XviD-Cocc.avi
Format : AVI
Format/Info : Audio Video Interleave
File size : 699 MiB
Duration : 1h 35mn
Overall bit rate : 1 029 Kbps

Video
Format : MPEG-4 Visual
Format profile : Streaming [email protected]
Format settings, BVOP : Yes
Format settings, QPel : No
Format settings, GMC : No warppoints
Format settings, Matrix : Default
Codec ID : XVID
Codec ID/Hint : XviD
Duration : 1h 35mn
Bit rate : 889 Kbps
Width : 624 pixels
Height : 336 pixels
Display aspect ratio : 1.857
Frame rate : 25.000 fps
Resolution : 24 bits
Colorimetry : 4:2:0
Scan type : Progressive
Bits/(Pixel*Frame) : 0.170
Stream size : 604 MiB (86%)
Writing library : XviD 1.1.2 (UTC 2006-11-01)

Audio
Format : MPEG Audio
Format version : Version 1
Format profile : Layer 3
Codec ID : 55
Codec ID/Hint : MP3
Duration : 1h 35mn
Bit rate mode : Variable
Bit rate : 127 Kbps
Nominal bit rate : 128 Kbps
Channel(s) : 2 channels
Sampling rate : 48.0 KHz
Resolution : 16 bits
Stream size : 86.3 MiB (12%)
Alignment : Aligned on interleaves
Interleave, duration : 24 ms (0.60 video frame)
Interleave, preload duration : 145 ms
Writing library : LAME3.90.
Encoding settings : ABR

Created with: DP MediaInfo version 1.05 (c) by Dirk Paehl
MediaInfoLib - v0.7.7.6

related torrents

Torrent name

health leech seeds Size
 


comments (0)

Main Menu