Horror

Rest Stop Dont Look Back 2008 MULTiSUBS DVDRip XviD Cocc

  • Download 5x Faster
  • Download torrent
  • Direct Download
  • Rate this torrent +  |  -
Rest Stop Dont Look Back 2008 MULTiSUBS DVDRip XviD Cocc

Anonymous and free Direct Download 300GB+


Torrent info

Name:Rest Stop Dont Look Back 2008 MULTiSUBS DVDRip XviD Cocc

Total Size: 703.93 MB

Magnet: Magnet Link

Seeds: 0

Leechers: 0

Stream: Watch Online @ Movie4u

Last Updated: 2010-07-28 20:28:01 (Update Now)

Torrent added: 2009-08-28 00:47:20



VPN For Torrents

Torrent Files List


Rest.Stop.Dont.Look.Back.2008.MULTiSUBS.DVDRip.XviD-Cocc.avi (Size: 703.93 MB) (Files: 2)

 Rest.Stop.Dont.Look.Back.2008.MULTiSUBS.DVDRip.XviD-Cocc.avi

699.16 MB

 Sub.rar

4.78 MB
 

Announce URL: http://vip.tracker.thepiratebay.org:80/announce

Torrent description

Rest Stop: Don't Look Back (2008)

The corporal Tom Hilts returns from overseas to his hometown Argyle, Texas,
for a ten days leave with the intention to seek our his brother Jess, who
disappeared one year ago while heading to California with his girl-friend
Nicole. He travels in his truck with his girlfriend Marilyn and followed by
his friend Jared in his old car to California trying to track his brother.
While in the old highway California, Jared needs to stop his car in an old
rest stop to go to the toilet and is attacked by the driver of a yellow truck.
Meanwhile Tom and Marilyn wait for him in the next rest stop where Tom is
also attacked and kidnapped by the driver of the yellow truck. Marilyn sees
the ghost of Nicole in the restroom and realizes that they are facing
supernatural evil forces.



Subtitles; En,Da,Nl,Fi,El,Hu,No,Pl,Pt,Es,Sv,


IMDb http://www.imdb.com/title/tt0995863/



General
Complete name : Rest.Stop.Dont.Look.Back.2008.MULTiSUBS.DVDRip.XviD-Cocc.avi
Format : AVI
Format/Info : Audio Video Interleave
File size : 699 MiB
Duration : 1h 25mn
Overall bit rate : 1 145 Kbps

Video
Format : MPEG-4 Visual
Format profile : Streaming [email protected]
Format settings, BVOP : Yes
Format settings, QPel : No
Format settings, GMC : No warppoints
Format settings, Matrix : Default
Codec ID : XVID
Codec ID/Hint : XviD
Duration : 1h 25mn
Bit rate : 992 Kbps
Width : 640 pixels
Height : 272 pixels
Display aspect ratio : 2.35
Frame rate : 25.000 fps
Resolution : 24 bits
Colorimetry : 4:2:0
Scan type : Progressive
Bits/(Pixel*Frame) : 0.228
Stream size : 605 MiB (87%)
Writing library : XviD 1.1.2 (UTC 2006-11-01)

Audio
Format : MPEG Audio
Format version : Version 1
Format profile : Layer 3
Codec ID : 55
Codec ID/Hint : MP3
Duration : 1h 25mn
Bit rate mode : Variable
Bit rate : 140 Kbps
Minimum bit rate : 128 Kbps
Channel(s) : 2 channels
Sampling rate : 48.0 KHz
Resolution : 16 bits
Stream size : 85.8 MiB (12%)
Alignment : Aligned on interleaves
Interleave, duration : 24 ms (0.60 video frame)
Interleave, preload duration : 128 ms
Writing library : LAME3.92
Encoding settings : VBR (rh)

Created with: DP MediaInfo version 1.05 (c) by Dirk Paehl
MediaInfoLib - v0.7.7.6

related torrents

Torrent name

health leech seeds Size
 


comments (0)

Main Menu