Horror

Red Mist 2008 DVDRIP XviD ZEKTORM

  • Download 5x Faster
  • Download torrent
  • Direct Download
  • Rate this torrent +  |  -
Red Mist 2008 DVDRIP XviD ZEKTORM

Anonymous and Free Direct Download 300GB+


Torrent info

Name:Red Mist 2008 DVDRIP XviD ZEKTORM

Total Size: 701.24 MB

Magnet: Magnet Link

Seeds: 16

Leechers: 5

Stream: Watch Online @ Movie4u

Last Updated: 0000-00-00 00:00:00 (Update Now)

Torrent added: 2009-08-28 00:38:27



VPN For Torrents

Torrent Files List


READ.hlp (Size: 701.24 MB) (Files: 3)

 READ.hlp

11.27 KB

 RM-ZEKTORM.avi

701.23 MB

 Torrent downloaded from Demonoid.com.txt

0.05 KB
 

Announce URL: http://inferno.demonoid.com:3417/announce

Torrent description

Title : Freakdog
Also Known As : Red Mist
Year : 2008
Genre : Horror | Thriller
iMDB URL : http://www.imdb.com/title/tt1185264/
Awards : 1 win

Complete name : RM-ZEKTORM.avi
Format : AVI
File size : 701 MiB
Duration : 1h 25mn
Overall bit rate : 1148 Kbps
Source : DVD NTSC

Video
Format : MPEG-4 Visual
Format profile : Streaming [email protected]
Codec ID : XVID
Codec ID/Hint : XviD
Duration : 1h 25mn
Bit rate : 1016 Kbps
Width : 720 pixels
Height : 416 pixels
Display aspect ratio : 16/9
Frame rate : 23.976 fps
Resolution : 24 bits
Colorimetry : 4:2:0
Scan type : Progressive
Bits/(Pixel*Frame) : 0.142
Stream size : 621 MiB (89%)
Writing library : XviD

Audio
Format : MPEG Audio
Format version : Version 1
Format profile : Layer 3
Codec ID : 55
Codec ID/Hint : MP3
Duration : 1h 25mn
Bit rate mode : Variable
Bit rate : 119 Kbps
Minimum bit rate : 128 Kbps
Channel(s) : 2 channels
Sampling rate : 48.0 KHz
Resolution : 16 bits
Stream size : 72.9 MiB (10%)
Writing library : LAME3.98r
Encoding settings : ABR

related torrents

Torrent name

health leech seeds Size
 


comments (0)

Main Menu