Horror

RED MIST DEWSTRR

  • Download 5x Faster
  • Download torrent
  • Direct Download
  • Rate this torrent +  |  -
RED MIST DEWSTRR

Free and Direct Download with Usenet.nl 300GB+ free


Torrent info

Name:RED MIST DEWSTRR

Total Size: 682.00 MB

Magnet: Magnet Link

Seeds: 0

Leechers: 0

Stream: Watch Online @ Movie4u

Last Updated: 2009-11-30 08:18:30 (Update Now)

Torrent added: 2009-08-28 00:37:11





Torrent Files List


2-9-2009 1-27-37 AM.jpg (Size: 682.00 MB) (Files: 5)

 2-9-2009 1-27-37 AM.jpg

7.79 KB

 2-9-2009 1-30-58 AM.jpg

6.55 KB

 2-9-2009 1-33-19 AM.jpg

5.68 KB

 2-9-2009 1-35-03 AM.jpg

8.70 KB

 RED MIST.xvid.avi. DEWSTRR.avi

681.97 MB
 

Announce URL: http://denis.stalker.h3q.com:6969/announce

Torrent description

college kids have to blackmail a strutting dork and it winds up putting him in a comma and while in the comma and a new drug lets him get revenge


Format : AVI
Format/Info : Audio Video Interleave
File size : 682 MiB
Duration : 1h 25mn
Overall bit rate : 1 117 Kbps

Video
Format : MPEG-4 Visual
Format profile : [email protected]
Format settings, BVOP : No
Format settings, QPel : No
Format settings, GMC : No warppoints
Format settings, Matrix : Default
Codec ID : XVID
Codec ID/Hint : XviD
Duration : 1h 25mn
Bit rate : 979 Kbps
Width : 688 pixels
Height : 384 pixels
Display aspect ratio : 16/9
Frame rate : 23.976 fps
Resolution : 24 bits
Colorimetry : 4:2:0
Scan type : Progressive
Bits/(Pixel*Frame) : 0.155
Stream size : 598 MiB (88%)
Writing library : XviD 1.2.0.dev47 (UTC 2006-11-01)

Audio
Format : MPEG Audio
Format version : Version 1
Format profile : Layer 3
Codec ID : 55
Codec ID/Hint : MP3
Duration : 1h 25mn
Bit rate mode : Constant
Bit rate : 128 Kbps
Minimum bit rate : 128 Kbps
Channel(s) : 2 channels
Sampling rate : 48.0 KHz
Resolution : 16 bits
Stream size : 78.2 MiB (11%)
Alignment : Aligned on interleaves
Interleave, duration : 42 ms (1.00 video frame)
Interleave, preload duration : 504 ms
Writing library : LAME3.97
Encoding settings : CBR

Image
Format : JPEG
Width : 227 pixels
Height : 127 pixels
Resolution : 24 bits

General
Complete name :RED MIST.xvid.DEWSTRR\2-9-2009 1-33-19 AM.jpg
Format : JPEG
File size : 5.68 KiB

Image
Format : JPEG
Width : 227 pixels
Height : 127 pixels
Resolution : 24 bits

General
Complete name :RED MIST.xvid.DEWSTRR\2-9-2009 1-35-03 AM.jpg
Format : JPEG
File size : 8.70 KiB

Image
Format : JPEG
Width : 227 pixels
Height : 127 pixels
Resolution : 24 bits

info hash:A479C2F77695DF969547743187E12FF76428E27E

related torrents

Torrent name

health leech seeds Size

RED PLANET DEWSTRR

7 11 1.09 GB 0
 

comments (0)

Main Menu