Pop

Alberto Camerini I successi [Flac+Cue]tntvillage scambioetico org[By Ramasutra]

  • Download 5x Faster
  • Download torrent
  • Direct Download
  • Rate this torrent +  |  -

Torrent info

Name:Alberto Camerini I successi [Flac+Cue]tntvillage scambioetico org[By Ramasutra]

Total Size: 319.77 MB

Magnet: Magnet Link

Seeds: 0

Leechers: 0

Stream: Watch Online @ Movie4u

Last Updated: 2015-07-29 02:15:24 (Update Now)

Torrent added: 2009-08-28 00:37:11



VPN For Torrents

Torrent Files List


Alberto Camerini - I successi.cue (Size: 319.77 MB) (Files: 5)

 Alberto Camerini - I successi.cue

1.58 KB

 Alberto Camerini - I successi.flac

319.20 MB

 camerini-back.jpg

404.65 KB

 camerini-front.jpg

175.51 KB

 I successi.log

2.95 KB
 

tracker

leech seeds
 

Torrent description

[align=center]Alberto Camerini   I successi [Flac+Cue]tntvillage scambioetico org[By Ramasutra] preview 2
[SIZE=16][color=#e1771e]Alberto Camerini - I Successi [/SIZE][/color]

[color=purple] by Ramasutra [/color]

[color=green]:::->Cover<-:::[/color]
Alberto Camerini   I successi [Flac+Cue]tntvillage scambioetico org[By Ramasutra] preview 0Alberto Camerini   I successi [Flac+Cue]tntvillage scambioetico org[By Ramasutra] preview 1

[color=green]:::->Dati Album<-:::[/color]


Autore:Alberto Camerini
Titolo: I Successi
Anno: 1997
Genere: Pop, Pop Italiano, Cantautori
Etichetta:Columbia
fonte cd /originale /cdda
Cover : Incluse
------------------------------------------------------------------------------------------------------------------------
[color=green]:::->Tracklist<-:::[/color]

1.rock n\' roll robot
2.non devi piangere
3.ska-tenati
4.pane quotidiano
5.maccheroni elettronici
6.Angelo in Blue Jeans
7.Bib Bib Rock
8.il ristorante di ricciolina
9 Tanz Bambolina
10.Macondo
11.sintonizzati con me
12.Miele
13.Gelato Metropolitano
14.serenella



-----------------------------------------------------------------------------------------------------------------------
Alberto Camerini è nato a San Paolo, Brasile il 16 maggio 1951.
Nato in Brasile da genitori italiani, a undici anni rientra in Italia. Inizia la sua carriera all\'inizio degli anni settanta come chitarrista sessionman.
Forma il gruppo \"Il Pacco\" a cui fanno parte Eugenio Finardi e la cantante/corista Donatella Bardi, con quest\'ultima successivamente prende parte nel \'71 all\'album \"Volo magico N.1\" di Claudio Rocchi, all\'\"Unità\" degli Stormy Six e al primo album di Finardi \"Non gettate alcun oggetto dal finestrino\" del 1975, dove firma il brano \"Afghanistan\".
Il suo primo album \"Cenerentola e il pane quotidiano\" viene pubblicato dalla Cramps nel 1976 ed evidenzia sonorità rock metropolitane vicine a quelle di Finardi. L\'anno successivo pubblica \"Gelato Metropolitano\" un album più marcatamente acustico e vicino alle sonorità brasiliane, con tematiche politiche ed ambientaliste, mentre nel 1978 chiude l\'esperienza Cramps con \"Comici Cosmetici\".
I suoi più grandi successi arriveranno negli Anni Ottanta con canzoni come \"Ska-tenati\"(1980) Rock \'n\' roll robot (1981) e Tanz bambolina (1982)\"Computer capriccio\" (che sono stati in classifica anche all\'estero) in cui propone al pubblico l\'immagine dell\'arlecchino Rock.
Nel 1984 partecipa al Festival di Sanremo con La bottega del caffè.





[color=green]:::->Dati Tecnici<-:::[/color]

[color=red] Formato : Flac [/color]
Programma usato [Eac]

[CODE]
Exact Audio Copy V0.99 prebeta 3 from 28. July 2007

EAC extraction logfile from 16. July 2008, 12:33

Alberto Camerini / I successi

Used drive : _NEC DVD_RW ND-3550A Adapter: 5 ID: 0

Read mode : Secure
Utilize accurate stream : Yes
Defeat audio cache : Yes
Make use of C2 pointers : No

Read offset correction : 48
Overread into Lead-In and Lead-Out : No
Fill up missing offset samples with silence : Yes
Delete leading and trailing silent blocks : No
Null samples used in CRC calculations : No
Used interface : Installed external ASPI interface

Used output format : User Defined Encoder
Selected bitrate : 768 kBit/s
Quality : High
Add ID3 tag : No
Command line compressor : C:\\Programmi\\Exact Audio Copy\\FLAC\\FLAC.EXE
Additional command line options : -6 -V -T \"ARTIST=%a\" -T \"TITLE=%t\" -T \"ALBUM=%g\" -T \"DATE=%y\" -T \"TRACKNUMBER=%n\" -T \"GENRE=%m\" -T \"COMMENT=%e\" %s -o %d


TOC of the extracted CD

Track | Start | Length | Start sector | End sector
---------------------------------------------------------
1 | 0:00.00 | 3:13.52 | 0 | 14526
2 | 3:13.52 | 3:51.60 | 14527 | 31911
3 | 7:05.37 | 2:20.48 | 31912 | 42459
4 | 9:26.10 | 4:02.25 | 42460 | 60634
5 | 13:28.35 | 3:42.67 | 60635 | 77351
6 | 17:11.27 | 4:04.45 | 77352 | 95696
7 | 21:15.72 | 3:21.05 | 95697 | 110776
8 | 24:37.02 | 3:32.15 | 110777 | 126691
9 | 28:09.17 | 3:32.00 | 126692 | 142591
10 | 31:41.17 | 4:53.30 | 142592 | 164596
11 | 36:34.47 | 2:54.60 | 164597 | 177706
12 | 39:29.32 | 2:53.73 | 177707 | 190754
13 | 42:23.30 | 3:24.37 | 190755 | 206091
14 | 45:47.67 | 2:57.50 | 206092 | 219416


Range status and errors

Selected range

Filename D:\\Documents and Settings\\salvo.SN116508160310\\Documenti\\Alberto Camerini - I successi.wav

Peak level 99.8 %
Range quality 100.0 %
Test CRC 6D3B9B14
Copy CRC 6D3B9B14
Copy OK

No errors occurred


AccurateRip summary

Track 1 not present in database
Track 2 not present in database
Track 3 not present in database
Track 4 not present in database
Track 5 not present in database
Track 6 not present in database
Track 7 not present in database
Track 8 not present in database
Track 9 not present in database
Track 10 not present in database
Track 11 not present in database
Track 12 not present in database
Track 13 not present in database
Track 14 not present in database

None of the tracks are present in the AccurateRip database

End of status report

[/CODE]

related torrents

Torrent name

health leech seeds Size
 


comments (0)

Main Menu