Horror

Re Animator Divx[

  • Download 5x Faster
  • Download torrent
  • Direct Download
  • Rate this torrent +  |  -
Re Animator Divx[

Download FREE And Anonymously


Torrent info

Name:Re Animator Divx[

Total Size: 695.22 MB

Magnet: Magnet Link

Seeds: 0

Leechers: 0

Stream: Watch Full Movie @ Movie4u

Last Updated: 2010-05-30 00:51:37 (Update Now)

Torrent added: 2009-08-28 00:33:25



VPN For Torrents

Torrent Files List


Re-Animator.nfo (Size: 695.22 MB) (Files: 51)

 Re-Animator.nfo

1.80 KB

 Re-Animator.part01.rar

14.31 MB

 Re-Animator.part02.rar

14.31 MB

 Re-Animator.part03.rar

14.31 MB

 Re-Animator.part04.rar

14.31 MB

 Re-Animator.part05.rar

14.31 MB

 Re-Animator.part06.rar

14.31 MB

 Re-Animator.part07.rar

14.31 MB

 Re-Animator.part08.rar

14.31 MB

 Re-Animator.part09.rar

14.31 MB

 Re-Animator.part10.rar

14.31 MB

 Re-Animator.part11.rar

14.31 MB

 Re-Animator.part12.rar

14.31 MB

 Re-Animator.part13.rar

14.31 MB

 Re-Animator.part14.rar

14.31 MB

 Re-Animator.part15.rar

14.31 MB

 Re-Animator.part16.rar

14.31 MB

 Re-Animator.part17.rar

14.31 MB

 Re-Animator.part18.rar

14.31 MB

 Re-Animator.part19.rar

14.31 MB

 Re-Animator.part20.rar

14.31 MB

 Re-Animator.part21.rar

14.31 MB

 Re-Animator.part22.rar

14.31 MB

 Re-Animator.part23.rar

14.31 MB

 Re-Animator.part24.rar

14.31 MB

 Re-Animator.part25.rar

14.31 MB

 Re-Animator.part26.rar

14.31 MB

 Re-Animator.part27.rar

14.31 MB

 Re-Animator.part28.rar

14.31 MB

 Re-Animator.part29.rar

14.31 MB

 Re-Animator.part30.rar

14.31 MB

 Re-Animator.part31.rar

14.31 MB

 Re-Animator.part32.rar

14.31 MB

 Re-Animator.part33.rar

14.31 MB

 Re-Animator.part34.rar

14.31 MB

 Re-Animator.part35.rar

14.31 MB

 Re-Animator.part36.rar

14.31 MB

 Re-Animator.part37.rar

14.31 MB

 Re-Animator.part38.rar

14.31 MB

 Re-Animator.part39.rar

14.31 MB

 Re-Animator.part40.rar

14.31 MB

 Re-Animator.part41.rar

14.31 MB

 Re-Animator.part42.rar

14.31 MB

 Re-Animator.part43.rar

14.31 MB

 Re-Animator.part44.rar

14.31 MB

 Re-Animator.part45.rar

14.31 MB

 Re-Animator.part46.rar

14.31 MB

 Re-Animator.part47.rar

14.31 MB

 Re-Animator.part48.rar

14.31 MB

 Re-Animator.part49.rar

8.57 MB

 Re-Animator.sfv

4.61 KB
 

Announce URL: http://tracker.ilovetorrents.com/announce.php

Torrent description

General
Complete name : C:\Torrent Creation\New Folder\Re-Animator.avi
Format : AVI
Format/Info : Audio Video Interleave
File size : 695 MiB
Duration : 1h 25mn
Overal bit rate : 1134 Kbps

Video
Format : MPEG-4 Visual
Format settings, BVOP : Yes
Format settings, QPel : No
Format settings, GMC : No warppoints
Format settings, Matrix : Default
Muxing mode : Packet Bitstream
Codec ID : DX50
Codec ID/Hint : DivX 5
Duration : 1h 25mn
Bit rate : 996 Kbps
Width : 640 pixels
Height : 336 pixels
Display aspect ratio : 1.905
Frame rate : 23.976 fps
Resolution : 8 bits
Colorimetry : 4:2:0
Scan type : Progressive
Bits/(Pixel*Frame) : 0.193
Stream size : 611 MiB
Writing library : DivX 5.1.1 (Maupiti) (UTC 2003-11-19)

Audio
Format : MPEG Audio
Format version : Version 1
Format profile : Layer 3
Codec ID : 55
Codec ID/Hint : MP3
Duration : 1h 25mn
Bit rate mode : Constant
Bit rate : 128 Kbps
Channel(s) : 2 channels
Sampling rate : 44.1 KHz
Resolution : 16 bits
Stream size : 78.5 MiB
Writing library : LAME3.92


Link: http://www.imdb.com/title/tt0089885/

related torrents

Torrent name

health leech seeds Size
 


comments (0)

Main Menu

 

script data-cfasync="false" src="//d2ghscazvn398x.cloudfront.net/?cshgd=690275">