Horror

Raw Meat[DVDRip][KooKoo]

  • Download 5x Faster
  • Download torrent
  • Direct Download
  • Rate this torrent +  |  -
Raw Meat[DVDRip][KooKoo]

Anonymous and Free Direct Download 300GB+


Torrent info

Name:Raw Meat[DVDRip][KooKoo]

Total Size: 815.43 MB

Magnet: Magnet Link

Seeds: 0

Leechers: 0

Stream: Watch Online @ Movie4u

Last Updated: 2011-03-06 21:39:12 (Update Now)

Torrent added: 2009-08-28 00:31:40



VPN For Torrents

Torrent Files List


KooKoo.txt (Size: 815.43 MB) (Files: 6)

 KooKoo.txt

12.43 KB

 Raw Meat[DVDRip][KooKoo].avi

803.21 MB

 Sample.avi

5.08 MB

 Subtitles

  Raw Meat[DVDRip][KooKoo].idx

88.38 KB

  Raw Meat[DVDRip][KooKoo].sub

7.04 MB

 tracked_by_h33t_com.txt

0.02 KB
 

Announce URL:

Torrent description

-------------------------------------------------------------------------------------------------------------
KKKKKKKKK KKKKKKK KKKKKKKKK KKKKKKK
K:::::::K K:::::K K:::::::K K:::::K
K:::::::K K:::::K K:::::::K K:::::K
K:::::::K K::::::K K:::::::K K::::::K
KK::::::K K:::::KKK ooooooooooo ooooooooooo KK::::::K K:::::KKK ooooooooooo ooooooooooo
K:::::K K:::::K oo:::::::::::oo oo:::::::::::oo K:::::K K:::::K oo:::::::::::oo oo:::::::::::oo
K::::::K:::::K o:::::::::::::::oo:::::::::::::::o K::::::K:::::K o:::::::::::::::oo:::::::::::::::o
K:::::::::::K o:::::ooooo:::::oo:::::ooooo:::::o K:::::::::::K o:::::ooooo:::::oo:::::ooooo:::::o
K:::::::::::K o::::o o::::oo::::o o::::o K:::::::::::K o::::o o::::oo::::o o::::o
K::::::K:::::K o::::o o::::oo::::o o::::o K::::::K:::::K o::::o o::::oo::::o o::::o
K:::::K K:::::K o::::o o::::oo::::o o::::o K:::::K K:::::K o::::o o::::oo::::o o::::o
KK::::::K K:::::KKKo::::o o::::oo::::o o::::oKK::::::K K:::::KKKo::::o o::::oo::::o o::::o
K:::::::K K::::::Ko:::::ooooo:::::oo:::::ooooo:::::oK:::::::K K::::::Ko:::::ooooo:::::oo:::::ooooo:::::o
K:::::::K K:::::Ko:::::::::::::::oo:::::::::::::::oK:::::::K K:::::Ko:::::::::::::::oo:::::::::::::::o
K:::::::K K:::::K oo:::::::::::oo oo:::::::::::oo K:::::::K K:::::K oo:::::::::::oo oo:::::::::::oo
KKKKKKKKK KKKKKKK ooooooooooo ooooooooooo KKKKKKKKK KKKKKKK ooooooooooo ooooooooooo
--------------------------------------------------------------------------------------------------------------

*****
Title:
*****

"Raw Meat a.k.a Death Line" (1972)

_____________________________________________________________________________________________________________
*****
Genre: Horror
*****
_____________________________________________________________________________________________________________

_____________________________________________________________________________________________________________
*********
Synopsis:
*********

For generations, they've lingered beneath the streets of London. But now their last survivor has
emerged, driven by a desperate hunger for human flesh! Donald Pleasence stars in this "daring" (The
Village Voice) horror classic that dishes out heart-stopping jolts and hair-raising thrills!

When a prominent politician and a beautiful young woman vanish inside a London subway station,
Scotland Yard's Inspector Calhoun (Pleasence) investigates and makes a horrifying discovery. Not only
did a group of 19th-century tunnel workers survive a cave-in, but they lived for years in a secret
underground enclave by consuming the flesh of their own dead. Now the lone descendant of this grisly
tribe has surfaced, prowling the streets of London for fresh victims...and a new mate
_____________________________________________________________________________________________________________
********
IMDB URL: http://www.imdb.com/title/tt0068458/
********
_____________________________________________________________________________________________________________
***********************
source Information:
***********************

http://www.dvdempire.com/Exec/v4_item.asp?userid=99366350097025&item_id=531366&searchID=85232

Studio: MGM / UA
Production Year: 1973
Release Date: 8/26/2003

Length: 88 mins
Rating: NR
Packaging: Keep Case
Number of Discs: 1
Disc: SS-SL
Item Code: 1004829
UPC Code: 027616888563
_____________________________________________________________________________________________________________
*****************************
File Verified With MediaInfo:
*****************************

-General
Complete name : Raw Meat[DVDRip][KooKoo].avi
Format : AVI
Format/Info : Audio Video Interleave
File size : 803 MiB
Duration : 1h 27mn
Overal bit rate : 1283 Kbps
Movie name : Raw Meat[DVDRip][KooKoo]
Director : Ripped By KooKoo
Writing application : Lavf51.19.0
Comment : Includes English French And Spanish Subtitles. / Subtitle format is in idx and .sub files.
Product : DVD_VOLUME

-Video
Format : MPEG-4 Visual
Format profile : [email protected]
Format settings, BVOP : No
Format settings, QPel : No
Format settings, GMC : No warppoints
Format settings, Matrix : Default
Codec ID : XVID
Codec ID/Hint : XviD
Duration : 1h 27mn
Bit rate : 1142 Kbps
Width : 608 pixels
Height : 340 pixels
Display aspect ratio : 16/9
Frame rate : 23.976 fps
Resolution : 8 bits
Colorimetry : 4:2:0
Scan type : Progressive
Bits/(Pixel*Frame) : 0.230
Stream size : 715 MiB
Writing library : XviD 1.1.2 (UTC 2006-11-01)

-Audio
Format : MPEG Audio
Format version : Version 1
Format profile : Layer 3
Codec ID : 55
Codec ID/Hint : MP3
Duration : 1h 27mn
Bit rate mode : Constant
Bit rate : 128 Kbps
Channel(s) : 2 channels
Sampling rate : 48.0 KHz
Resolution : 16 bits
Stream size : 80.2 MiB
Language : english
_____________________________________________________________________________________________________________

related torrents

Torrent name

health leech seeds Size

Raw White Meat Volume

20 3 1.17 GB 0
 


comments (0)

Main Menu