Horror

Puppet Master 7 Retro Puppet Master 1999 AC3 FS DVDRip XviD STeVeO[

  • Download 5x Faster
  • Download torrent
  • Direct Download
  • Rate this torrent +  |  -
Puppet Master 7 Retro Puppet Master 1999 AC3 FS DVDRip XviD STeVeO[

Free and Direct Download with Usenet.nl 300GB+ free


Torrent info

Name:Puppet Master 7 Retro Puppet Master 1999 AC3 FS DVDRip XviD STeVeO[

Total Size: 696.02 MB

Magnet: Magnet Link

Seeds: 0

Leechers: 0

Stream: Watch Online @ Movie4u

Last Updated: 2011-03-18 16:24:43 (Update Now)

Torrent added: 2009-08-28 00:27:12





Torrent Files List


Puppet Master 7 - Retro Puppet Master.part01.rar (Size: 696.02 MB) (Files: 51)

 Puppet Master 7 - Retro Puppet Master.part01.rar

14.31 MB

 Puppet Master 7 - Retro Puppet Master.part01.sfv

7.11 KB

 Puppet Master 7 - Retro Puppet Master.part02.rar

14.31 MB

 Puppet Master 7 - Retro Puppet Master.part03.rar

14.31 MB

 Puppet Master 7 - Retro Puppet Master.part04.rar

14.31 MB

 Puppet Master 7 - Retro Puppet Master.part05.rar

14.31 MB

 Puppet Master 7 - Retro Puppet Master.part06.rar

14.31 MB

 Puppet Master 7 - Retro Puppet Master.part07.rar

14.31 MB

 Puppet Master 7 - Retro Puppet Master.part08.rar

14.31 MB

 Puppet Master 7 - Retro Puppet Master.part09.rar

14.31 MB

 Puppet Master 7 - Retro Puppet Master.part10.rar

14.31 MB

 Puppet Master 7 - Retro Puppet Master.part11.rar

14.31 MB

 Puppet Master 7 - Retro Puppet Master.part12.rar

14.31 MB

 Puppet Master 7 - Retro Puppet Master.part13.rar

14.31 MB

 Puppet Master 7 - Retro Puppet Master.part14.rar

14.31 MB

 Puppet Master 7 - Retro Puppet Master.part15.rar

14.31 MB

 Puppet Master 7 - Retro Puppet Master.part16.rar

14.31 MB

 Puppet Master 7 - Retro Puppet Master.part17.rar

14.31 MB

 Puppet Master 7 - Retro Puppet Master.part18.rar

14.31 MB

 Puppet Master 7 - Retro Puppet Master.part19.rar

14.31 MB

 Puppet Master 7 - Retro Puppet Master.part20.rar

14.31 MB

 Puppet Master 7 - Retro Puppet Master.part21.rar

14.31 MB

 Puppet Master 7 - Retro Puppet Master.part22.rar

14.31 MB

 Puppet Master 7 - Retro Puppet Master.part23.rar

14.31 MB

 Puppet Master 7 - Retro Puppet Master.part24.rar

14.31 MB

 Puppet Master 7 - Retro Puppet Master.part25.rar

14.31 MB

 Puppet Master 7 - Retro Puppet Master.part26.rar

14.31 MB

 Puppet Master 7 - Retro Puppet Master.part27.rar

14.31 MB

 Puppet Master 7 - Retro Puppet Master.part28.rar

14.31 MB

 Puppet Master 7 - Retro Puppet Master.part29.rar

14.31 MB

 Puppet Master 7 - Retro Puppet Master.part30.rar

14.31 MB

 Puppet Master 7 - Retro Puppet Master.part31.rar

14.31 MB

 Puppet Master 7 - Retro Puppet Master.part32.rar

14.31 MB

 Puppet Master 7 - Retro Puppet Master.part33.rar

14.31 MB

 Puppet Master 7 - Retro Puppet Master.part34.rar

14.31 MB

 Puppet Master 7 - Retro Puppet Master.part35.rar

14.31 MB

 Puppet Master 7 - Retro Puppet Master.part36.rar

14.31 MB

 Puppet Master 7 - Retro Puppet Master.part37.rar

14.31 MB

 Puppet Master 7 - Retro Puppet Master.part38.rar

14.31 MB

 Puppet Master 7 - Retro Puppet Master.part39.rar

14.31 MB

 Puppet Master 7 - Retro Puppet Master.part40.rar

14.31 MB

 Puppet Master 7 - Retro Puppet Master.part41.rar

14.31 MB

 Puppet Master 7 - Retro Puppet Master.part42.rar

14.31 MB

 Puppet Master 7 - Retro Puppet Master.part43.rar

14.31 MB

 Puppet Master 7 - Retro Puppet Master.part44.rar

14.31 MB

 Puppet Master 7 - Retro Puppet Master.part45.rar

14.31 MB

 Puppet Master 7 - Retro Puppet Master.part46.rar

14.31 MB

 Puppet Master 7 - Retro Puppet Master.part47.rar

14.31 MB

 Puppet Master 7 - Retro Puppet Master.part48.rar

14.31 MB

 Puppet Master 7 - Retro Puppet Master.part49.rar

9.36 MB

 Puppetmaster 7.nfo

1.88 KB
 

Announce URL: http://tracker.ilovetorrents.com/announce.php

Torrent description

Complete name : L:\\Torrent Schijf\\11 - Uploading\\Puppet Master 7 - Retro Puppet Master.avi
Format : AVI
Format/Info : Audio Video Interleave
File size : 696 MiB
Duration : 1h 20mn
Overal bit rate : 1214 Kbps
Movie name : Puppet.Master.7.Retro.Puppet.Master.1999.AC3.FS.DVDRip.XviD-STeVeO
Copyright : STeVeO.03.06.03

Video
Format : MPEG-4 Visual
Format profile : [email protected]
Format settings, BVOP : Yes
Format settings, QPel : No
Format settings, GMC : No warppoints
Format settings, Matrix : Default
Codec ID : XVID
Codec ID/Hint : XviD
Duration : 1h 20mn
Bit rate : 1014 Kbps
Width : 576 pixels
Height : 432 pixels
Display aspect ratio : 4/3
Frame rate : 23.976 fps
Resolution : 8 bits
Colorimetry : 4:2:0
Scan type : Progressive
Bits/(Pixel*Frame) : 0.170
Stream size : 581 MiB
Writing library : XviD 0.0.09 (UTC 2003-03-25)

Audio
Format : AC-3
Format/Info : Audio Coding 3
Codec ID : 2000
Duration : 1h 20mn
Bit rate mode : Constant
Bit rate : 192 Kbps
Channel(s) : 2 channels
Channel positions : L R
Sampling rate : 48.0 KHz
Stream size : 110 MiB
Language : undefined


Link: http://www.imdb.com/title/tt0189047/

related torrents

Torrent name

health leech seeds Size
 

comments (0)

Main Menu