Horror

Puppet Master 1989 DVDivX Zen[

  • Download 5x Faster
  • Download torrent
  • Direct Download
  • Rate this torrent +  |  -
Puppet Master 1989 DVDivX Zen[

Free and Direct Download with Usenet.nl 300GB+ free


Torrent info

Name:Puppet Master 1989 DVDivX Zen[

Total Size: 696.78 MB

Magnet: Magnet Link

Seeds: 0

Leechers: 0

Stream: Watch Online @ Movie4u

Last Updated: 2010-09-29 20:38:24 (Update Now)

Torrent added: 2009-08-28 00:27:12





Torrent Files List


Puppet Master 1.part01.rar (Size: 696.78 MB) (Files: 51)

 Puppet Master 1.part01.rar

14.31 MB

 Puppet Master 1.part01.sfv

5.00 KB

 Puppet Master 1.part02.rar

14.31 MB

 Puppet Master 1.part03.rar

14.31 MB

 Puppet Master 1.part04.rar

14.31 MB

 Puppet Master 1.part05.rar

14.31 MB

 Puppet Master 1.part06.rar

14.31 MB

 Puppet Master 1.part07.rar

14.31 MB

 Puppet Master 1.part08.rar

14.31 MB

 Puppet Master 1.part09.rar

14.31 MB

 Puppet Master 1.part10.rar

14.31 MB

 Puppet Master 1.part11.rar

14.31 MB

 Puppet Master 1.part12.rar

14.31 MB

 Puppet Master 1.part13.rar

14.31 MB

 Puppet Master 1.part14.rar

14.31 MB

 Puppet Master 1.part15.rar

14.31 MB

 Puppet Master 1.part16.rar

14.31 MB

 Puppet Master 1.part17.rar

14.31 MB

 Puppet Master 1.part18.rar

14.31 MB

 Puppet Master 1.part19.rar

14.31 MB

 Puppet Master 1.part20.rar

14.31 MB

 Puppet Master 1.part21.rar

14.31 MB

 Puppet Master 1.part22.rar

14.31 MB

 Puppet Master 1.part23.rar

14.31 MB

 Puppet Master 1.part24.rar

14.31 MB

 Puppet Master 1.part25.rar

14.31 MB

 Puppet Master 1.part26.rar

14.31 MB

 Puppet Master 1.part27.rar

14.31 MB

 Puppet Master 1.part28.rar

14.31 MB

 Puppet Master 1.part29.rar

14.31 MB

 Puppet Master 1.part30.rar

14.31 MB

 Puppet Master 1.part31.rar

14.31 MB

 Puppet Master 1.part32.rar

14.31 MB

 Puppet Master 1.part33.rar

14.31 MB

 Puppet Master 1.part34.rar

14.31 MB

 Puppet Master 1.part35.rar

14.31 MB

 Puppet Master 1.part36.rar

14.31 MB

 Puppet Master 1.part37.rar

14.31 MB

 Puppet Master 1.part38.rar

14.31 MB

 Puppet Master 1.part39.rar

14.31 MB

 Puppet Master 1.part40.rar

14.31 MB

 Puppet Master 1.part41.rar

14.31 MB

 Puppet Master 1.part42.rar

14.31 MB

 Puppet Master 1.part43.rar

14.31 MB

 Puppet Master 1.part44.rar

14.31 MB

 Puppet Master 1.part45.rar

14.31 MB

 Puppet Master 1.part46.rar

14.31 MB

 Puppet Master 1.part47.rar

14.31 MB

 Puppet Master 1.part48.rar

14.31 MB

 Puppet Master 1.part49.rar

10.13 MB

 Puppetmaster 1.nfo

1.79 KB
 

Announce URL: http://tracker.ilovetorrents.com/announce.php

Torrent description

General
Complete name : L:\Torrent Schijf\11 - Uploading\Puppet Master 1.avi
Format : AVI
Format/Info : Audio Video Interleave
File size : 697 MiB
Duration : 1h 27mn
Overal bit rate : 1111 Kbps
Movie name : Puppet.Master.1989.DVDivX-Zen
Director : ..::/ z E n @ 2001
Subject : Puppet.Master.1989.DVDivX-Zen
Writing application : Nandub v1.0rc2
Writing library : Nandub build 1853/release
Copyright : ..::/ z E n @ 2001
Comment : ..::/ z E n @ 2001

Video
Format : MPEG-4 Visual
Codec ID : DIV3
Codec ID/Hint : DivX 3 Low
Duration : 1h 27mn
Bit rate : 970 Kbps
Width : 512 pixels
Height : 384 pixels
Display aspect ratio : 4/3
Frame rate : 23.976 fps
Resolution : 24 bits
Bits/(Pixel*Frame) : 0.206
Stream size : 608 MiB

Audio
Format : MPEG Audio
Format version : Version 1
Format profile : Layer 3
Codec ID : 55
Codec ID/Hint : MP3
Duration : 1h 27mn
Bit rate mode : Constant
Bit rate : 128 Kbps
Channel(s) : 2 channels
Sampling rate : 48.0 KHz
Resolution : 16 bits
Stream size : 80.3 MiB

related torrents

Torrent name

health leech seeds Size
 

comments (0)

Main Menu