Horror

Puppet Master 8 Legacy dvdrip [

  • Download 5x Faster
  • Download torrent
  • Direct Download
  • Rate this torrent +  |  -
Puppet Master 8 Legacy dvdrip [

Anonymous and Direct Download 300GB+ free


Torrent info

Name:Puppet Master 8 Legacy dvdrip [

Total Size: 700.50 MB

Magnet: Magnet Link

Seeds: 0

Leechers: 0

Stream: Watch Online @ Movie4u

Last Updated: 2011-01-02 21:34:47 (Update Now)

Torrent added: 2009-08-28 00:26:55




Torrent Files List


Puppet Master 8 - Legacy.part01.rar (Size: 700.50 MB) (Files: 51)

 Puppet Master 8 - Legacy.part01.rar

14.31 MB

 Puppet Master 8 - Legacy.part01.sfv

5.86 KB

 Puppet Master 8 - Legacy.part02.rar

14.31 MB

 Puppet Master 8 - Legacy.part03.rar

14.31 MB

 Puppet Master 8 - Legacy.part04.rar

14.31 MB

 Puppet Master 8 - Legacy.part05.rar

14.31 MB

 Puppet Master 8 - Legacy.part06.rar

14.31 MB

 Puppet Master 8 - Legacy.part07.rar

14.31 MB

 Puppet Master 8 - Legacy.part08.rar

14.31 MB

 Puppet Master 8 - Legacy.part09.rar

14.31 MB

 Puppet Master 8 - Legacy.part10.rar

14.31 MB

 Puppet Master 8 - Legacy.part11.rar

14.31 MB

 Puppet Master 8 - Legacy.part12.rar

14.31 MB

 Puppet Master 8 - Legacy.part13.rar

14.31 MB

 Puppet Master 8 - Legacy.part14.rar

14.31 MB

 Puppet Master 8 - Legacy.part15.rar

14.31 MB

 Puppet Master 8 - Legacy.part16.rar

14.31 MB

 Puppet Master 8 - Legacy.part17.rar

14.31 MB

 Puppet Master 8 - Legacy.part18.rar

14.31 MB

 Puppet Master 8 - Legacy.part19.rar

14.31 MB

 Puppet Master 8 - Legacy.part20.rar

14.31 MB

 Puppet Master 8 - Legacy.part21.rar

14.31 MB

 Puppet Master 8 - Legacy.part22.rar

14.31 MB

 Puppet Master 8 - Legacy.part23.rar

14.31 MB

 Puppet Master 8 - Legacy.part24.rar

14.31 MB

 Puppet Master 8 - Legacy.part25.rar

14.31 MB

 Puppet Master 8 - Legacy.part26.rar

14.31 MB

 Puppet Master 8 - Legacy.part27.rar

14.31 MB

 Puppet Master 8 - Legacy.part28.rar

14.31 MB

 Puppet Master 8 - Legacy.part29.rar

14.31 MB

 Puppet Master 8 - Legacy.part30.rar

14.31 MB

 Puppet Master 8 - Legacy.part31.rar

14.31 MB

 Puppet Master 8 - Legacy.part32.rar

14.31 MB

 Puppet Master 8 - Legacy.part33.rar

14.31 MB

 Puppet Master 8 - Legacy.part34.rar

14.31 MB

 Puppet Master 8 - Legacy.part35.rar

14.31 MB

 Puppet Master 8 - Legacy.part36.rar

14.31 MB

 Puppet Master 8 - Legacy.part37.rar

14.31 MB

 Puppet Master 8 - Legacy.part38.rar

14.31 MB

 Puppet Master 8 - Legacy.part39.rar

14.31 MB

 Puppet Master 8 - Legacy.part40.rar

14.31 MB

 Puppet Master 8 - Legacy.part41.rar

14.31 MB

 Puppet Master 8 - Legacy.part42.rar

14.31 MB

 Puppet Master 8 - Legacy.part43.rar

14.31 MB

 Puppet Master 8 - Legacy.part44.rar

14.31 MB

 Puppet Master 8 - Legacy.part45.rar

14.31 MB

 Puppet Master 8 - Legacy.part46.rar

14.31 MB

 Puppet Master 8 - Legacy.part47.rar

14.31 MB

 Puppet Master 8 - Legacy.part48.rar

14.31 MB

 Puppet Master 8 - Legacy.part49.rar

13.84 MB

 Puppetmaster 8.nfo

1.81 KB
 

Announce URL: http://tracker.ilovetorrents.com/announce.php

Torrent description

Complete name : L:\Torrent Schijf\11 - Uploading\Puppet Master 8 - Legacy.avi
Format : AVI
Format/Info : Audio Video Interleave
File size : 700 MiB
Duration : 1h 11mn
Overal bit rate : 1366 Kbps
Writing application : VirtualDubMod 1.5.4.1 (build 2178/release)
Writing library : VirtualDubMod build 2178/release
IAS1 : English

Video
Format : MPEG-4 Visual
Format settings, BVOP : Yes
Format settings, QPel : No
Format settings, GMC : No warppoints
Format settings, Matrix : Default
Codec ID : DX50
Codec ID/Hint : DivX 5
Duration : 1h 11mn
Bit rate : 1167 Kbps
Width : 512 pixels
Height : 384 pixels
Display aspect ratio : 4/3
Frame rate : 23.976 fps
Resolution : 8 bits
Colorimetry : 4:2:0
Scan type : Progressive
Bits/(Pixel*Frame) : 0.248
Stream size : 599 MiB
Writing library : DivX 6.0.0 (UTC 2005-06-15)

Audio
Format : AC-3
Format/Info : Audio Coding 3
Codec ID : 2000
Duration : 1h 11mn
Bit rate mode : Constant
Bit rate : 192 Kbps
Channel(s) : 2 channels
Channel positions : L R
Sampling rate : 48.0 KHz
Stream size : 98.5 MiB


Link: http://www.imdb.com/title/tt0390393/

related torrents

Torrent name

health leech seeds Size
 


comments (0)

Main Menu