Horror

Puppet Master 6 dvix [

  • Download 5x Faster
  • Download torrent
  • Direct Download
  • Rate this torrent +  |  -
Puppet Master 6 dvix [

Download FREE And Anonymously


Torrent info

Name:Puppet Master 6 dvix [

Total Size: 700.57 MB

Magnet: Magnet Link

Seeds: 0

Leechers: 0

Stream: Watch Full Movie @ Movie4u

Last Updated: 2010-06-27 23:22:44 (Update Now)

Torrent added: 2009-08-28 00:26:47



VPN For Torrents

Torrent Files List


Puppet Master 6.part01.rar (Size: 700.57 MB) (Files: 51)

 Puppet Master 6.part01.rar

14.31 MB

 Puppet Master 6.part01.sfv

5.00 KB

 Puppet Master 6.part02.rar

14.31 MB

 Puppet Master 6.part03.rar

14.31 MB

 Puppet Master 6.part04.rar

14.31 MB

 Puppet Master 6.part05.rar

14.31 MB

 Puppet Master 6.part06.rar

14.31 MB

 Puppet Master 6.part07.rar

14.31 MB

 Puppet Master 6.part08.rar

14.31 MB

 Puppet Master 6.part09.rar

14.31 MB

 Puppet Master 6.part10.rar

14.31 MB

 Puppet Master 6.part11.rar

14.31 MB

 Puppet Master 6.part12.rar

14.31 MB

 Puppet Master 6.part13.rar

14.31 MB

 Puppet Master 6.part14.rar

14.31 MB

 Puppet Master 6.part15.rar

14.31 MB

 Puppet Master 6.part16.rar

14.31 MB

 Puppet Master 6.part17.rar

14.31 MB

 Puppet Master 6.part18.rar

14.31 MB

 Puppet Master 6.part19.rar

14.31 MB

 Puppet Master 6.part20.rar

14.31 MB

 Puppet Master 6.part21.rar

14.31 MB

 Puppet Master 6.part22.rar

14.31 MB

 Puppet Master 6.part23.rar

14.31 MB

 Puppet Master 6.part24.rar

14.31 MB

 Puppet Master 6.part25.rar

14.31 MB

 Puppet Master 6.part26.rar

14.31 MB

 Puppet Master 6.part27.rar

14.31 MB

 Puppet Master 6.part28.rar

14.31 MB

 Puppet Master 6.part29.rar

14.31 MB

 Puppet Master 6.part30.rar

14.31 MB

 Puppet Master 6.part31.rar

14.31 MB

 Puppet Master 6.part32.rar

14.31 MB

 Puppet Master 6.part33.rar

14.31 MB

 Puppet Master 6.part34.rar

14.31 MB

 Puppet Master 6.part35.rar

14.31 MB

 Puppet Master 6.part36.rar

14.31 MB

 Puppet Master 6.part37.rar

14.31 MB

 Puppet Master 6.part38.rar

14.31 MB

 Puppet Master 6.part39.rar

14.31 MB

 Puppet Master 6.part40.rar

14.31 MB

 Puppet Master 6.part41.rar

14.31 MB

 Puppet Master 6.part42.rar

14.31 MB

 Puppet Master 6.part43.rar

14.31 MB

 Puppet Master 6.part44.rar

14.31 MB

 Puppet Master 6.part45.rar

14.31 MB

 Puppet Master 6.part46.rar

14.31 MB

 Puppet Master 6.part47.rar

14.31 MB

 Puppet Master 6.part48.rar

14.31 MB

 Puppet Master 6.part49.rar

13.92 MB

 Puppetmaster 6.nfo

1.95 KB
 

Announce URL: http://tracker.ilovetorrents.com/announce.php

Torrent description

General
Complete name : L:\Torrent Schijf\11 - Uploading\Puppet Master 6.avi
Format : AVI
Format/Info : Audio Video Interleave
File size : 701 MiB
Duration : 1h 17mn
Overal bit rate : 1261 Kbps
Writing application : Nandub v1.0rc2
Writing library : Nandub build 1852/release

Video
Format : MPEG-4 Visual
Format settings, BVOP : Yes
Format settings, QPel : No
Format settings, GMC : 2 warppoints
Format settings, Matrix : Default
Muxing mode : Packet Bitstream
Codec ID : DX50
Codec ID/Hint : DivX 5
Duration : 1h 17mn
Bit rate : 1122 Kbps
Width : 512 pixels
Height : 384 pixels
Display aspect ratio : 4/3
Frame rate : 23.976 fps
Resolution : 8 bits
Scan type : Progressive
Bits/(Pixel*Frame) : 0.238
Stream size : 623 MiB
Writing library : DivX 5.0.2 (UTC 2002-05-16)

Audio
Format : MPEG Audio
Format version : Version 1
Format profile : Layer 3
Codec ID : 55
Codec ID/Hint : MP3
Duration : 1h 17mn
Bit rate mode : Variable
Bit rate : 126 Kbps
Nominal bit rate : 128 Kbps
Channel(s) : 2 channels
Sampling rate : 48.0 KHz
Resolution : 16 bits
Stream size : 70.2 MiB
Writing library : LAME3.92
Encoding settings : ABR

related torrents

Torrent name

health leech seeds Size

Puppet Master 4 dvix[

0 0 639.15 MB 0

Puppet Master 5 dvix [

0 0 639.52 MB 0
 


comments (0)

Main Menu

 

script data-cfasync="false" src="//d2ghscazvn398x.cloudfront.net/?cshgd=690275">