Horror

Puppet Master 5 dvix [

  • Download 5x Faster
  • Download torrent
  • Direct Download
  • Rate this torrent +  |  -
Puppet Master 5 dvix [

Free and Direct Download with Usenet 300GB+ free


Torrent info

Name:Puppet Master 5 dvix [

Total Size: 639.52 MB

Magnet: Magnet Link

Seeds: 0

Leechers: 0

Stream: Watch Online @ Movie4u

Last Updated: 2013-09-12 17:26:54 (Update Now)

Torrent added: 2009-08-28 00:26:34




Torrent Files List


Puppet Master 5 - The Final Chapter.part01.rar (Size: 639.52 MB) (Files: 47)

 Puppet Master 5 - The Final Chapter.part01.rar

14.31 MB

 Puppet Master 5 - The Final Chapter.part01.sfv

6.36 KB

 Puppet Master 5 - The Final Chapter.part02.rar

14.31 MB

 Puppet Master 5 - The Final Chapter.part03.rar

14.31 MB

 Puppet Master 5 - The Final Chapter.part04.rar

14.31 MB

 Puppet Master 5 - The Final Chapter.part05.rar

14.31 MB

 Puppet Master 5 - The Final Chapter.part06.rar

14.31 MB

 Puppet Master 5 - The Final Chapter.part07.rar

14.31 MB

 Puppet Master 5 - The Final Chapter.part08.rar

14.31 MB

 Puppet Master 5 - The Final Chapter.part09.rar

14.31 MB

 Puppet Master 5 - The Final Chapter.part10.rar

14.31 MB

 Puppet Master 5 - The Final Chapter.part11.rar

14.31 MB

 Puppet Master 5 - The Final Chapter.part12.rar

14.31 MB

 Puppet Master 5 - The Final Chapter.part13.rar

14.31 MB

 Puppet Master 5 - The Final Chapter.part14.rar

14.31 MB

 Puppet Master 5 - The Final Chapter.part15.rar

14.31 MB

 Puppet Master 5 - The Final Chapter.part16.rar

14.31 MB

 Puppet Master 5 - The Final Chapter.part17.rar

14.31 MB

 Puppet Master 5 - The Final Chapter.part18.rar

14.31 MB

 Puppet Master 5 - The Final Chapter.part19.rar

14.31 MB

 Puppet Master 5 - The Final Chapter.part20.rar

14.31 MB

 Puppet Master 5 - The Final Chapter.part21.rar

14.31 MB

 Puppet Master 5 - The Final Chapter.part22.rar

14.31 MB

 Puppet Master 5 - The Final Chapter.part23.rar

14.31 MB

 Puppet Master 5 - The Final Chapter.part24.rar

14.31 MB

 Puppet Master 5 - The Final Chapter.part25.rar

14.31 MB

 Puppet Master 5 - The Final Chapter.part26.rar

14.31 MB

 Puppet Master 5 - The Final Chapter.part27.rar

14.31 MB

 Puppet Master 5 - The Final Chapter.part28.rar

14.31 MB

 Puppet Master 5 - The Final Chapter.part29.rar

14.31 MB

 Puppet Master 5 - The Final Chapter.part30.rar

14.31 MB

 Puppet Master 5 - The Final Chapter.part31.rar

14.31 MB

 Puppet Master 5 - The Final Chapter.part32.rar

14.31 MB

 Puppet Master 5 - The Final Chapter.part33.rar

14.31 MB

 Puppet Master 5 - The Final Chapter.part34.rar

14.31 MB

 Puppet Master 5 - The Final Chapter.part35.rar

14.31 MB

 Puppet Master 5 - The Final Chapter.part36.rar

14.31 MB

 Puppet Master 5 - The Final Chapter.part37.rar

14.31 MB

 Puppet Master 5 - The Final Chapter.part38.rar

14.31 MB

 Puppet Master 5 - The Final Chapter.part39.rar

14.31 MB

 Puppet Master 5 - The Final Chapter.part40.rar

14.31 MB

 Puppet Master 5 - The Final Chapter.part41.rar

14.31 MB

 Puppet Master 5 - The Final Chapter.part42.rar

14.31 MB

 Puppet Master 5 - The Final Chapter.part43.rar

14.31 MB

 Puppet Master 5 - The Final Chapter.part44.rar

14.31 MB

 Puppet Master 5 - The Final Chapter.part45.rar

10.09 MB

 Puppetmaster 5.nfo

1.65 KB
 

Announce URL:

Torrent description

General
Complete name : L:\Torrent Schijf\11 - Uploading\Puppet Master 5 - The Final Chapter.avi
Format : AVI
Format/Info : Audio Video Interleave
File size : 640 MiB
Duration : 1h 21mn
Overal bit rate : 1096 Kbps
Writing application : Nandub v1.0rc2
Writing library : Nandub build 1852/release

Video
Format : MPEG-4 Visual
Codec ID : DIV3
Codec ID/Hint : DivX 3 Low
Duration : 1h 21mn
Bit rate : 976 Kbps
Width : 576 pixels
Height : 416 pixels
Display aspect ratio : 1.385
Frame rate : 23.976 fps
Resolution : 24 bits
Bits/(Pixel*Frame) : 0.170
Stream size : 569 MiB

Audio
Format : MPEG Audio
Format version : Version 1
Format profile : Layer 3
Codec ID : 55
Codec ID/Hint : MP3
Duration : 1h 21mn
Bit rate mode : Variable
Bit rate : 107 Kbps
Nominal bit rate : 112 Kbps
Channel(s) : 2 channels
Sampling rate : 48.0 KHz
Resolution : 16 bits
Stream size : 62.7 MiB
Writing library : LAME3.93a
Encoding settings : ABR

related torrents

Torrent name

health leech seeds Size

Puppet Master 4 dvix[

0 0 639.15 MB 0

Puppet Master 6 dvix [

0 0 700.57 MB 0
 

comments (0)

Main Menu