Horror

Puppet Master 4 dvix[

  • Download 5x Faster
  • Download torrent
  • Direct Download
  • Rate this torrent +  |  -
Puppet Master 4 dvix[

Free and Direct Download with Usenet.nl 300GB+ free


Torrent info

Name:Puppet Master 4 dvix[

Total Size: 639.15 MB

Magnet: Magnet Link

Seeds: 0

Leechers: 0

Stream: Watch Online @ Movie4u

Last Updated: 2010-02-15 17:01:43 (Update Now)

Torrent added: 2009-08-28 00:26:33





Torrent Files List


Puppet Master 4.part01.rar (Size: 639.15 MB) (Files: 47)

 Puppet Master 4.part01.rar

14.31 MB

 Puppet Master 4.part01.sfv

4.61 KB

 Puppet Master 4.part02.rar

14.31 MB

 Puppet Master 4.part03.rar

14.31 MB

 Puppet Master 4.part04.rar

14.31 MB

 Puppet Master 4.part05.rar

14.31 MB

 Puppet Master 4.part06.rar

14.31 MB

 Puppet Master 4.part07.rar

14.31 MB

 Puppet Master 4.part08.rar

14.31 MB

 Puppet Master 4.part09.rar

14.31 MB

 Puppet Master 4.part10.rar

14.31 MB

 Puppet Master 4.part11.rar

14.31 MB

 Puppet Master 4.part12.rar

14.31 MB

 Puppet Master 4.part13.rar

14.31 MB

 Puppet Master 4.part14.rar

14.31 MB

 Puppet Master 4.part15.rar

14.31 MB

 Puppet Master 4.part16.rar

14.31 MB

 Puppet Master 4.part17.rar

14.31 MB

 Puppet Master 4.part18.rar

14.31 MB

 Puppet Master 4.part19.rar

14.31 MB

 Puppet Master 4.part20.rar

14.31 MB

 Puppet Master 4.part21.rar

14.31 MB

 Puppet Master 4.part22.rar

14.31 MB

 Puppet Master 4.part23.rar

14.31 MB

 Puppet Master 4.part24.rar

14.31 MB

 Puppet Master 4.part25.rar

14.31 MB

 Puppet Master 4.part26.rar

14.31 MB

 Puppet Master 4.part27.rar

14.31 MB

 Puppet Master 4.part28.rar

14.31 MB

 Puppet Master 4.part29.rar

14.31 MB

 Puppet Master 4.part30.rar

14.31 MB

 Puppet Master 4.part31.rar

14.31 MB

 Puppet Master 4.part32.rar

14.31 MB

 Puppet Master 4.part33.rar

14.31 MB

 Puppet Master 4.part34.rar

14.31 MB

 Puppet Master 4.part35.rar

14.31 MB

 Puppet Master 4.part36.rar

14.31 MB

 Puppet Master 4.part37.rar

14.31 MB

 Puppet Master 4.part38.rar

14.31 MB

 Puppet Master 4.part39.rar

14.31 MB

 Puppet Master 4.part40.rar

14.31 MB

 Puppet Master 4.part41.rar

14.31 MB

 Puppet Master 4.part42.rar

14.31 MB

 Puppet Master 4.part43.rar

14.31 MB

 Puppet Master 4.part44.rar

14.31 MB

 Puppet Master 4.part45.rar

9.72 MB

 Puppetmaster 4.nfo

1.63 KB
 

Announce URL: http://tracker.ilovetorrents.com/announce.php

Torrent description

General
Complete name : L:\Torrent Schijf\11 - Uploading\Puppet Master 4.avi
Format : AVI
Format/Info : Audio Video Interleave
File size : 639 MiB
Duration : 1h 19mn
Overal bit rate : 1130 Kbps
Writing application : Nandub v1.0rc2
Writing library : Nandub build 1852/release

Video
Format : MPEG-4 Visual
Codec ID : DIV3
Codec ID/Hint : DivX 3 Low
Duration : 1h 19mn
Bit rate : 1011 Kbps
Width : 576 pixels
Height : 416 pixels
Display aspect ratio : 1.385
Frame rate : 23.976 fps
Resolution : 24 bits
Bits/(Pixel*Frame) : 0.176
Stream size : 572 MiB

Audio
Format : MPEG Audio
Format version : Version 1
Format profile : Layer 3
Codec ID : 55
Codec ID/Hint : MP3
Duration : 1h 19mn
Bit rate mode : Variable
Bit rate : 106 Kbps
Nominal bit rate : 112 Kbps
Channel(s) : 2 channels
Sampling rate : 48.0 KHz
Resolution : 16 bits
Stream size : 59.9 MiB
Writing library : LAME3.93a
Encoding settings : ABR

related torrents

Torrent name

health leech seeds Size

Puppet Master 5 dvix [

0 0 639.52 MB 0

Puppet Master 6 dvix [

0 0 700.57 MB 0
 

comments (0)

Main Menu