Horror

Puppet Master 3 Toulon's Revenge DVDRIP XVID[

  • Download 5x Faster
  • Download torrent
  • Direct Download
  • Rate this torrent +  |  -
Puppet Master 3 Toulon's Revenge DVDRIP XVID[

Free and Direct Download with Usenet 300GB+ free


Torrent info

Name:Puppet Master 3 Toulon's Revenge DVDRIP XVID[

Total Size: 695.93 MB

Magnet: Magnet Link

Seeds: 0

Leechers: 0

Stream: Watch Online @ Movie4u

Last Updated: 2015-01-25 05:58:03 (Update Now)

Torrent added: 2009-08-28 00:26:22




Torrent Files List


Puppet Master 3 - Toulon's Revenge.part01.rar (Size: 695.93 MB) (Files: 51)

 Puppet Master 3 - Toulon's Revenge.part01.rar

14.31 MB

 Puppet Master 3 - Toulon's Revenge.part01.sfv

6.82 KB

 Puppet Master 3 - Toulon's Revenge.part02.rar

14.31 MB

 Puppet Master 3 - Toulon's Revenge.part03.rar

14.31 MB

 Puppet Master 3 - Toulon's Revenge.part04.rar

14.31 MB

 Puppet Master 3 - Toulon's Revenge.part05.rar

14.31 MB

 Puppet Master 3 - Toulon's Revenge.part06.rar

14.31 MB

 Puppet Master 3 - Toulon's Revenge.part07.rar

14.31 MB

 Puppet Master 3 - Toulon's Revenge.part08.rar

14.31 MB

 Puppet Master 3 - Toulon's Revenge.part09.rar

14.31 MB

 Puppet Master 3 - Toulon's Revenge.part10.rar

14.31 MB

 Puppet Master 3 - Toulon's Revenge.part11.rar

14.31 MB

 Puppet Master 3 - Toulon's Revenge.part12.rar

14.31 MB

 Puppet Master 3 - Toulon's Revenge.part13.rar

14.31 MB

 Puppet Master 3 - Toulon's Revenge.part14.rar

14.31 MB

 Puppet Master 3 - Toulon's Revenge.part15.rar

14.31 MB

 Puppet Master 3 - Toulon's Revenge.part16.rar

14.31 MB

 Puppet Master 3 - Toulon's Revenge.part17.rar

14.31 MB

 Puppet Master 3 - Toulon's Revenge.part18.rar

14.31 MB

 Puppet Master 3 - Toulon's Revenge.part19.rar

14.31 MB

 Puppet Master 3 - Toulon's Revenge.part20.rar

14.31 MB

 Puppet Master 3 - Toulon's Revenge.part21.rar

14.31 MB

 Puppet Master 3 - Toulon's Revenge.part22.rar

14.31 MB

 Puppet Master 3 - Toulon's Revenge.part23.rar

14.31 MB

 Puppet Master 3 - Toulon's Revenge.part24.rar

14.31 MB

 Puppet Master 3 - Toulon's Revenge.part25.rar

14.31 MB

 Puppet Master 3 - Toulon's Revenge.part26.rar

14.31 MB

 Puppet Master 3 - Toulon's Revenge.part27.rar

14.31 MB

 Puppet Master 3 - Toulon's Revenge.part28.rar

14.31 MB

 Puppet Master 3 - Toulon's Revenge.part29.rar

14.31 MB

 Puppet Master 3 - Toulon's Revenge.part30.rar

14.31 MB

 Puppet Master 3 - Toulon's Revenge.part31.rar

14.31 MB

 Puppet Master 3 - Toulon's Revenge.part32.rar

14.31 MB

 Puppet Master 3 - Toulon's Revenge.part33.rar

14.31 MB

 Puppet Master 3 - Toulon's Revenge.part34.rar

14.31 MB

 Puppet Master 3 - Toulon's Revenge.part35.rar

14.31 MB

 Puppet Master 3 - Toulon's Revenge.part36.rar

14.31 MB

 Puppet Master 3 - Toulon's Revenge.part37.rar

14.31 MB

 Puppet Master 3 - Toulon's Revenge.part38.rar

14.31 MB

 Puppet Master 3 - Toulon's Revenge.part39.rar

14.31 MB

 Puppet Master 3 - Toulon's Revenge.part40.rar

14.31 MB

 Puppet Master 3 - Toulon's Revenge.part41.rar

14.31 MB

 Puppet Master 3 - Toulon's Revenge.part42.rar

14.31 MB

 Puppet Master 3 - Toulon's Revenge.part43.rar

14.31 MB

 Puppet Master 3 - Toulon's Revenge.part44.rar

14.31 MB

 Puppet Master 3 - Toulon's Revenge.part45.rar

14.31 MB

 Puppet Master 3 - Toulon's Revenge.part46.rar

14.31 MB

 Puppet Master 3 - Toulon's Revenge.part47.rar

14.31 MB

 Puppet Master 3 - Toulon's Revenge.part48.rar

14.31 MB

 Puppet Master 3 - Toulon's Revenge.part49.rar

9.27 MB

 Puppetmaster 3.nfo

1.78 KB
 

Announce URL:

Torrent description

General
Complete name : L:\Torrent Schijf\11 - Uploading\Puppet Master 3 - Toulon's Revenge.avi
Format : AVI
Format/Info : Audio Video Interleave
File size : 696 MiB
Duration : 1h 18mn
Overal bit rate : 1242 Kbps

Video
Format : MPEG-4 Visual
Format settings, BVOP : Yes
Format settings, QPel : No
Format settings, GMC : No warppoints
Format settings, Matrix : Default
Muxing mode : Packet Bitstream
Codec ID : DX50
Codec ID/Hint : DivX 5
Duration : 1h 18mn
Bit rate : 1072 Kbps
Width : 640 pixels
Height : 464 pixels
Display aspect ratio : 1.379
Frame rate : 25.000 fps
Resolution : 8 bits
Colorimetry : 4:2:0
Scan type : Progressive
Bits/(Pixel*Frame) : 0.144
Stream size : 601 MiB
Writing library : DivX 5.1.1 (Maupiti) (UTC 2003-11-19)

Audio
Format : MPEG Audio
Format version : Version 1
Format profile : Layer 3
Codec ID : 55
Codec ID/Hint : MP3
Duration : 1h 18mn
Bit rate mode : Constant
Bit rate : 160 Kbps
Channel(s) : 2 channels
Sampling rate : 48.0 KHz
Resolution : 16 bits
Stream size : 89.7 MiB

related torrents

Torrent name

health leech seeds Size
 

comments (0)

Main Menu