Horror

Puppet Master 2 His Unholy Creations DVDRIP XVID[

  • Download 5x Faster
  • Download torrent
  • Direct Download
  • Rate this torrent +  |  -
Puppet Master 2 His Unholy Creations DVDRIP XVID[

Free and Direct Download with Usenet.nl 300GB+ free


Torrent info

Name:Puppet Master 2 His Unholy Creations DVDRIP XVID[

Total Size: 700.13 MB

Magnet: Magnet Link

Seeds: 0

Leechers: 0

Stream: Watch Online @ Movie4u

Last Updated: 2016-11-26 11:12:58 (Update Now)

Torrent added: 2009-08-28 00:26:13





Torrent Files List


Puppet Master 2 - His Unholy Creations.part01.rar (Size: 700.13 MB) (Files: 51)

 Puppet Master 2 - His Unholy Creations.part01.rar

14.31 MB

 Puppet Master 2 - His Unholy Creations.part01.sfv

7.20 KB

 Puppet Master 2 - His Unholy Creations.part02.rar

14.31 MB

 Puppet Master 2 - His Unholy Creations.part03.rar

14.31 MB

 Puppet Master 2 - His Unholy Creations.part04.rar

14.31 MB

 Puppet Master 2 - His Unholy Creations.part05.rar

14.31 MB

 Puppet Master 2 - His Unholy Creations.part06.rar

14.31 MB

 Puppet Master 2 - His Unholy Creations.part07.rar

14.31 MB

 Puppet Master 2 - His Unholy Creations.part08.rar

14.31 MB

 Puppet Master 2 - His Unholy Creations.part09.rar

14.31 MB

 Puppet Master 2 - His Unholy Creations.part10.rar

14.31 MB

 Puppet Master 2 - His Unholy Creations.part11.rar

14.31 MB

 Puppet Master 2 - His Unholy Creations.part12.rar

14.31 MB

 Puppet Master 2 - His Unholy Creations.part13.rar

14.31 MB

 Puppet Master 2 - His Unholy Creations.part14.rar

14.31 MB

 Puppet Master 2 - His Unholy Creations.part15.rar

14.31 MB

 Puppet Master 2 - His Unholy Creations.part16.rar

14.31 MB

 Puppet Master 2 - His Unholy Creations.part17.rar

14.31 MB

 Puppet Master 2 - His Unholy Creations.part18.rar

14.31 MB

 Puppet Master 2 - His Unholy Creations.part19.rar

14.31 MB

 Puppet Master 2 - His Unholy Creations.part20.rar

14.31 MB

 Puppet Master 2 - His Unholy Creations.part21.rar

14.31 MB

 Puppet Master 2 - His Unholy Creations.part22.rar

14.31 MB

 Puppet Master 2 - His Unholy Creations.part23.rar

14.31 MB

 Puppet Master 2 - His Unholy Creations.part24.rar

14.31 MB

 Puppet Master 2 - His Unholy Creations.part25.rar

14.31 MB

 Puppet Master 2 - His Unholy Creations.part26.rar

14.31 MB

 Puppet Master 2 - His Unholy Creations.part27.rar

14.31 MB

 Puppet Master 2 - His Unholy Creations.part28.rar

14.31 MB

 Puppet Master 2 - His Unholy Creations.part29.rar

14.31 MB

 Puppet Master 2 - His Unholy Creations.part30.rar

14.31 MB

 Puppet Master 2 - His Unholy Creations.part31.rar

14.31 MB

 Puppet Master 2 - His Unholy Creations.part32.rar

14.31 MB

 Puppet Master 2 - His Unholy Creations.part33.rar

14.31 MB

 Puppet Master 2 - His Unholy Creations.part34.rar

14.31 MB

 Puppet Master 2 - His Unholy Creations.part35.rar

14.31 MB

 Puppet Master 2 - His Unholy Creations.part36.rar

14.31 MB

 Puppet Master 2 - His Unholy Creations.part37.rar

14.31 MB

 Puppet Master 2 - His Unholy Creations.part38.rar

14.31 MB

 Puppet Master 2 - His Unholy Creations.part39.rar

14.31 MB

 Puppet Master 2 - His Unholy Creations.part40.rar

14.31 MB

 Puppet Master 2 - His Unholy Creations.part41.rar

14.31 MB

 Puppet Master 2 - His Unholy Creations.part42.rar

14.31 MB

 Puppet Master 2 - His Unholy Creations.part43.rar

14.31 MB

 Puppet Master 2 - His Unholy Creations.part44.rar

14.31 MB

 Puppet Master 2 - His Unholy Creations.part45.rar

14.31 MB

 Puppet Master 2 - His Unholy Creations.part46.rar

14.31 MB

 Puppet Master 2 - His Unholy Creations.part47.rar

14.31 MB

 Puppet Master 2 - His Unholy Creations.part48.rar

14.31 MB

 Puppet Master 2 - His Unholy Creations.part49.rar

13.47 MB

 Puppetmaster 2.nfo

1.58 KB
 

tracker

leech seeds
 

Torrent description

General
Complete name : L:\Torrent Schijf\11 - Uploading\Puppet Master 2 - His Unholy Creations.avi
Format : AVI
Format/Info : Audio Video Interleave
File size : 700 MiB
Duration : 1h 24mn
Overal bit rate : 1154 Kbps

Video
Format : MPEG-4 Visual
Format settings, BVOP : Yes
Format settings, QPel : No
Format settings, GMC : No warppoints
Format settings, Matrix : Default
Codec ID : XVID
Codec ID/Hint : XviD
Duration : 1h 24mn
Bit rate : 1013 Kbps
Width : 576 pixels
Height : 448 pixels
Display aspect ratio : 1.286
Frame rate : 25.000 fps
Resolution : 8 bits
Scan type : Progressive
Bits/(Pixel*Frame) : 0.157
Stream size : 615 MiB

Audio
Format : MPEG Audio
Format version : Version 1
Format profile : Layer 3
Codec ID : 55
Codec ID/Hint : MP3
Bit rate mode : Constant
Bit rate : 128 Kbps
Channel(s) : 2 channels
Sampling rate : 48.0 KHz
Resolution : 16 bits
Stream size : 77.7 MiB

related torrents

Torrent name

health leech seeds Size
 

comments (0)

Main Menu