Horror

PROPHECY 2 DEWSTRR

  • Download 5x Faster
  • Download torrent
  • Direct Download
  • Rate this torrent +  |  -
PROPHECY 2 DEWSTRR

Free and Direct Download with Usenet.nl 300GB+ free


Torrent info

Name:PROPHECY 2 DEWSTRR

Total Size: 736.70 MB

Magnet: Magnet Link

Seeds: 1

Leechers: 3

Stream: Watch Online @ Movie4u

Last Updated: 2010-07-29 02:52:50 (Update Now)

Torrent added: 2009-08-28 00:18:38





Torrent Files List


PH 2 1.jpg (Size: 736.70 MB) (Files: 14)

 PH 2 1.jpg

15.09 KB

 PH 2 1.sfv

1.42 KB

 PH 2 10.jpg

9.78 KB

 PH 2 2.jpg

9.40 KB

 PH 2 3.jpg

11.64 KB

 PH 2 4.jpg

9.27 KB

 PH 2 5.jpg

6.71 KB

 PH 2 6.jpg

10.46 KB

 PH 2 7.jpg

12.57 KB

 PH 2 8.jpg

8.85 KB

 PH 2 9.jpg

8.32 KB

 PROPHECY 2.DEWSTRR.divx

736.60 MB

 PROPHECY 2.NFO

2.87 KB

 Torrent_downloaded_from_Demonoid.com.txt

0.05 KB
 

Announce URL: http://inferno.demonoid.com:3408/announce

Torrent description

PROPHECY 2 DVDRIP

Horror | Thriller

Gabriel returns to Earth to prevent the birth of a child conceived by one of his kind (the Angel Daniel) and one of God's "monkeys" (a human woman - Valerie). The coming of this child has been prophecised by a monk, Thomas. When the Angel Daniel kills members of Gabriel's army of angels, Gabriel instead employs the assistance of a teenage girl (Izzy) who has just committed suicide. Gabriel keeps her alive to assist him in his war against Daniel and the other angels which climaxes in a battle in Eden.

PROPHECY 2 DEWSTRR preview 0

http://www.imdb.com/title/tt0118643/

Format : AVI
Format/Info : Audio Video Interleave
File size : 737 MiB
Duration : 1h 23mn
Overall bit rate : 1 238 Kbps

Video
Format : MPEG-4 Visual
Format settings, BVOP : Yes
Format settings, QPel : No
Format settings, GMC : No warppoints
Format settings, Matrix : Default
Muxing mode : Packed bitstream
Codec ID : DX50
Codec ID/Hint : DivX 5
Duration : 1h 23mn
Bit rate : 1 100 Kbps
Width : 648 pixels
Height : 352 pixels
Display aspect ratio : 16/9
Frame rate : 23.976 fps
Resolution : 24 bits
Colorimetry : 4:2:0
Scan type : Progressive
Bits/(Pixel*Frame) : 0.201
Stream size : 655 MiB (89%)
Title : Video
Writing library : DivX 6.8.2 (UTC 2008-05-17)

Audio
Format : MPEG Audio
Format version : Version 1
Format profile : Layer 3
Codec ID : 55
Codec ID/Hint : MP3
Duration : 1h 23mn
Bit rate mode : Constant
Bit rate : 128 Kbps
Channel(s) : 2 channels
Sampling rate : 48.0 KHz
Resolution : 16 bits
Stream size : 76.2 MiB (10%)
Alignment : Split accross interleaves
Interleave, duration : 42 ms (1.00 video frame)
Interleave, preload duration : 500 ms
Title : Audio
Writing library : LAME3.92

General
Complete name : PROPHECY 2.DEWSTRR\PH 2 1.sfv
File size : 1.42 KiB

General
Complete name : PROPHECY 2.DEWSTRR\Torrent_downloaded_from_Demonoid.com.txt
File size : 47.0 Bytes
PROPHECY 2 DEWSTRR preview 1
PROPHECY 2 DEWSTRR preview 2
PROPHECY 2 DEWSTRR preview 3
PROPHECY 2 DEWSTRR preview 4
PROPHECY 2 DEWSTRR preview 5
PROPHECY 2 DEWSTRR preview 6
PROPHECY 2 DEWSTRR preview 7
PROPHECY 2 DEWSTRR preview 8
PROPHECY 2 DEWSTRR preview 9
PROPHECY 2 DEWSTRR preview 10
burned with windows [with a couple of other movies on a disk] and played on my philips divx ultra certified dvd player
be sure to set your dvd player on the correct aspect ratio

related torrents

Torrent name

health leech seeds Size

THE PROPHECY DEWSTRR

0 0 907.85 MB 0
 

comments (0)

Main Menu