Horror

Prince Of Darkness [DVDRip][KooKoo][h33t]

  • Download 5x Faster
  • Download torrent
  • Direct Download
  • Rate this torrent +  |  -
Prince Of Darkness [DVDRip][KooKoo][h33t]

Anonymous and Direct Download 300GB+ free


Torrent info

Name:Prince Of Darkness [DVDRip][KooKoo][h33t]

Total Size: 804.08 MB

Magnet: Magnet Link

Seeds: 0

Leechers: 0

Stream: Watch Online @ Movie4u

Last Updated: 2016-09-13 12:05:49 (Update Now)

Torrent added: 2009-08-28 00:17:03




Torrent Files List


KooKoo.txt (Size: 804.08 MB) (Files: 6)

 KooKoo.txt

16.17 KB

 Prince Of Darkness [DVDRip][KooKoo][h33t].avi

783.98 MB

 Sample

  Sample.avi

11.74 MB

 Subtitles

  Prince Of Darkness [DVDRip][KooKoo][h33t].idx

105.58 KB

  Prince Of Darkness [DVDRip][KooKoo][h33t].sub

8.24 MB

 tracked_by_h33t_com.txt

0.02 KB
 

tracker

leech seeds
 

Torrent description

-------------------------------------------------------------------------------------------------------------
KKKKKKKKK KKKKKKK KKKKKKKKK KKKKKKK
K:::::::K K:::::K K:::::::K K:::::K
K:::::::K K:::::K K:::::::K K:::::K
K:::::::K K::::::K K:::::::K K::::::K
KK::::::K K:::::KKK ooooooooooo ooooooooooo KK::::::K K:::::KKK ooooooooooo ooooooooooo
K:::::K K:::::K oo:::::::::::oo oo:::::::::::oo K:::::K K:::::K oo:::::::::::oo oo:::::::::::oo
K::::::K:::::K o:::::::::::::::oo:::::::::::::::o K::::::K:::::K o:::::::::::::::oo:::::::::::::::o
K:::::::::::K o:::::ooooo:::::oo:::::ooooo:::::o K:::::::::::K o:::::ooooo:::::oo:::::ooooo:::::o
K:::::::::::K o::::o o::::oo::::o o::::o K:::::::::::K o::::o o::::oo::::o o::::o
K::::::K:::::K o::::o o::::oo::::o o::::o K::::::K:::::K o::::o o::::oo::::o o::::o
K:::::K K:::::K o::::o o::::oo::::o o::::o K:::::K K:::::K o::::o o::::oo::::o o::::o
KK::::::K K:::::KKKo::::o o::::oo::::o o::::oKK::::::K K:::::KKKo::::o o::::oo::::o o::::o
K:::::::K K::::::Ko:::::ooooo:::::oo:::::ooooo:::::oK:::::::K K::::::Ko:::::ooooo:::::oo:::::ooooo:::::o
K:::::::K K:::::Ko:::::::::::::::oo:::::::::::::::oK:::::::K K:::::Ko:::::::::::::::oo:::::::::::::::o
K:::::::K K:::::K oo:::::::::::oo oo:::::::::::oo K:::::::K K:::::K oo:::::::::::oo oo:::::::::::oo
KKKKKKKKK KKKKKKK ooooooooooo ooooooooooo KKKKKKKKK KKKKKKK ooooooooooo ooooooooooo
--------------------------------------------------------------------------------------------------------------

*****
Title:
*****

Prince of Darkness (1987)

_____________________________________________________________________________________________________________
*****
Genre: Horror
*****
_____________________________________________________________________________________________________________

_____________________________________________________________________________________________________________
*********
Synopsis:
*********

Master of horror John Carpenter (Halloween, The Thing) directs this terrifying battle between humankind and ultimate evil.

A group of graduate students and scientists uncover an ancient canister in an abandoned church, but
when they open the container, they inadvertently unleash a strange liquid and an evil force on all
humanity. As the liquid turns their co-workers into zombies, the remaining members realize they have
released the most unspeakable of horrors, Satan himself, thus paving the way for the return of his
father-the all-powerful anti-God.

Terror mounts as the last two members of the team must fight to save an innocent world from a devilish fury that has
festered for over seven million years.
_____________________________________________________________________________________________________________
********
IMDB URL: http://www.imdb.com/title/tt0093777/
********
_____________________________________________________________________________________________________________
***********************
source Information:
***********************

http://www.dvdempire.com/Exec/v4_item.asp?userid=99366350831077&item_id=546192&searchID=51290

Studio: Universal Studios
Production Year: 1987
Release Date: 10/7/2003

Length: 102 mins
Rating: R
Packaging: Keep Case
Number of Discs: 1
Disc: SS-DL
Item Code: 61021234
UPC Code: 025192123429
_____________________________________________________________________________________________________________
*****************************
File Verified With MediaInfo:
*****************************

-General
Complete name : Prince Of Darkness [DVDRip][KooKoo][h33t].avi
Format : AVI
Format/Info : Audio Video Interleave
File size : 784 MiB
Duration : 1h 41mn
Overal bit rate : 1079 Kbps
Movie name : Prince Of Darkness [DVDRip][KooKoo][h33t]
Director : Ripped By KooKoo
Recorded date : 6/21/2008
Writing application : Lavf51.19.0
Comment : Includes: English, French, and Spanish Subtitles
IWEB : http://h33t.com/
Product : DVD_VOLUME

-Video
Format : MPEG-4 Visual
Format profile : [email protected]
Format settings, BVOP : No
Format settings, QPel : No
Format settings, GMC : No warppoints
Format settings, Matrix : Default
Codec ID : XVID
Codec ID/Hint : XviD
Duration : 1h 41mn
Bit rate : 937 Kbps
Width : 624 pixels
Height : 266 pixels
Display aspect ratio : 2.35
Frame rate : 29.970 fps
Resolution : 8 bits
Colorimetry : 4:2:0
Scan type : Progressive
Bits/(Pixel*Frame) : 0.188
Stream size : 681 MiB
Writing library : XviD 1.1.2 (UTC 2006-11-01)

-Audio
Format : MPEG Audio
Format version : Version 1
Format profile : Layer 3
Codec ID : 55
Codec ID/Hint : MP3
Duration : 1h 41mn
Bit rate mode : Constant
Bit rate : 128 Kbps
Channel(s) : 2 channels
Sampling rate : 48.0 KHz
Resolution : 16 bits
Stream size : 93.0 MiB
Writing library : LAME3.97
Language : english
_____________________________________________________________________________________________________________

hhhhhhh 333333333333333 333333333333333 tttt
h:::::h 3:::::::::::::::33 3:::::::::::::::33 ttt:::t
h:::::h 3::::::33333::::::33::::::33333::::::3 t:::::t _____________________________
h:::::h 3333333 3:::::33333333 3:::::3 t:::::t | Email me for any requests |
h::::h hhhhh 3:::::3 3:::::3ttttttt:::::ttttttt | [email protected] |
h::::hh:::::hhh 3:::::3 3:::::3t:::::::::::::::::t |_____________________________|
h::::::::::::::hh 33333333:::::3 33333333:::::3 t:::::::::::::::::t
h:::::::hhh::::::h 3:::::::::::3 3:::::::::::3 tttttt:::::::tttttt
h::::::h h::::::h 33333333:::::3 33333333:::::3 t:::::t
h:::::h h:::::h 3:::::3 3:::::3 t:::::t
h:::::h h:::::h 3:::::3 3:::::3 t:::::t _____________________________
h:::::h h:::::h 3:::::3 3:::::3 t:::::t tttttt |Enjoy and please keep |
h:::::h h:::::h3333333 3:::::33333333 3:::::3 t::::::tttt:::::t |This torrent alive by SEEDING|
h:::::h h:::::h3::::::33333::::::33::::::33333::::::3 tt::::::::::::::t |_____________________________|
h:::::h h:::::h3:::::::::::::::33 3:::::::::::::::33 tt:::::::::::tt
hhhhhhh hhhhhhh 333333333333333 333333333333333 ttttttttttt
_____________________________________________________________________________________________________________
For more info, go here: http://h33t.com/details.php?id=7a23053e2c505a37f230916c6186edda6a5bcce3

related torrents

Torrent name

health leech seeds Size
 


comments (0)

Main Menu