Horror

Parasomnia 2008 DVDRIP XviD ZEKTORM

  • Download 5x Faster
  • Download torrent
  • Direct Download
  • Rate this torrent +  |  -
Parasomnia 2008 DVDRIP XviD ZEKTORM

Free and Direct Download with Usenet 300GB+ free


Torrent info

Name:Parasomnia 2008 DVDRIP XviD ZEKTORM

Total Size: 703.77 MB

Magnet: Magnet Link

Seeds: 3

Leechers: 3

Stream: Watch Online @ Movie4u

Last Updated: 2012-05-22 13:59:22 (Update Now)

Torrent added: 2009-08-27 23:55:55




Torrent Files List


P-ZEKTORM.avi (Size: 703.77 MB) (Files: 5)

 P-ZEKTORM.avi

701.25 MB

 READ.hlp

11.27 KB

 Subs

  P-ZEKTORM.idx

38.96 KB

  P-ZEKTORM.sub

2.47 MB

 Torrent downloaded from Demonoid.com.txt

0.05 KB
 

Announce URL: http://inferno.demonoid.com:3414/announce

Torrent description

Format : AVI
File size : 701 MiB
Duration : 1h 42mn
Overall bit rate : 956 Kbps
Subtitles : English (Format: VobSub)
Source : DVD NTSC

Video
Format : MPEG-4 Visual
Format profile : Streaming [email protected]
Codec ID : XVID
Codec ID/Hint : XviD
Duration : 1h 42mn
Bit rate : 833 Kbps
Width : 720 pixels
Height : 416 pixels
Display aspect ratio : 16/9
Frame rate : 23.976 fps
Resolution : 24 bits
Colorimetry : 4:2:0
Scan type : Progressive
Bits/(Pixel*Frame) : 0.116
Stream size : 611 MiB (87%)
Writing library : XviD

Audio
Format : MPEG Audio
Format version : Version 1
Format profile : Layer 3
Codec ID : 55
Codec ID/Hint : MP3
Duration : 1h 42mn
Bit rate mode : Variable
Bit rate : 110 Kbps
Minimum bit rate : 128 Kbps
Channel(s) : 2 channels
Sampling rate : 48.0 KHz
Resolution : 16 bits
Video delay : 96ms
Stream size : 80.7 MiB (12%)
Writing library : LAME3.98r
Encoding settings : ABR

related torrents

Torrent name

health leech seeds Size
 

comments (0)

Main Menu