Horror

Outpost 2008 DVDRIP XviD ZEKTORM

  • Download 5x Faster
  • Download torrent
  • Direct Download
  • Rate this torrent +  |  -
Outpost 2008 DVDRIP XviD ZEKTORM

Free and Direct Download with Usenet.nl 300GB+ free


Torrent info

Name:Outpost 2008 DVDRIP XviD ZEKTORM

Total Size: 744.94 MB

Magnet: Magnet Link

Seeds: 8

Leechers: 7

Stream: Watch Online @ Movie4u

Last Updated: 2011-04-30 02:48:59 (Update Now)

Torrent added: 2009-08-27 23:51:02





Torrent Files List


Outpost.2008.DVDRIP.XviD-ZEKTORM.avi (Size: 744.94 MB) (Files: 4)

 Outpost.2008.DVDRIP.XviD-ZEKTORM.avi

701.87 MB

 READ.hlp

11.27 KB

 Subs

  Outpost.2008.DVDRIP.XviD-ZEKTORM.idx

462.20 KB

  Outpost.2008.DVDRIP.XviD-ZEKTORM.sub

42.61 MB
 

Announce URL: http://tracker.torrentbox.com:2710/announce

Torrent description

Title : Outpost
Year : 2008
Genre : Action | Horror
iMDB URL : http://www.imdb.com/title/tt0892899/

Complete name : Outpost.2008.DVDRIP.XviD-ZEKTORM.avi
Format : AVI
File size : 702 MiB
Duration : 1h 26mn
Overall bit rate : 1131 Kbps
Subtitles : English, Spanish, Svenska, Norsk, Dansk,
Finnish, Hebrew, Bulgarian, Greek, Romanian
Turkish, Hungarian, Islenska, Hindi (Format: VobSub)
Source : DVD PAL

Video
Format : MPEG-4 Visual
Format profile : Streaming [email protected]
Codec ID : DX50
Codec ID/Hint : DivX 5
Duration : 1h 26mn
Bit rate : 996 Kbps
Width : 720 pixels
Height : 304 pixels
Display aspect ratio : 2.35
Frame rate : 25.000 fps
Resolution : 24 bits
Colorimetry : 4:2:0
Scan type : Progressive
Bits/(Pixel*Frame) : 0.182
Stream size : 618 MiB (88%)
Writing library : XviD

Audio
Format : MPEG Audio
Format version : Version 1
Format profile : Layer 3
Codec ID : 55
Codec ID/Hint : MP3
Duration : 1h 26mn
Bit rate mode : Constant
Bit rate : 128 Kbps
Channel(s) : 2 channels
Sampling rate : 48.0 KHz
Resolution : 16 bits
Stream size : 79.4 MiB (11%)

related torrents

Torrent name

health leech seeds Size
 

comments (0)

Main Menu