Horror

One Missed Call 2008 480p BRRip XviD AC3 ViSiON [ceasers palace info]

  • Download 5x Faster
  • Download torrent
  • Direct Download
  • Rate this torrent +  |  -
One Missed Call 2008 480p BRRip XviD AC3 ViSiON [ceasers palace info]

Free and Direct Download with Usenet.nl 300GB+ free


Torrent info

Name:One Missed Call 2008 480p BRRip XviD AC3 ViSiON [ceasers palace info]

Total Size: 1.45 GB

Magnet: Magnet Link

Seeds: 0

Leechers: 0

Stream: Watch Online @ Movie4u

Last Updated: 2015-09-07 05:40:34 (Update Now)

Torrent added: 2009-08-27 23:45:11





Torrent Files List


One.Missed.Call.2008.480p.BRRip.XviD.AC3-ViSiON.part01.rar (Size: 1.45 GB) (Files: 33)

 One.Missed.Call.2008.480p.BRRip.XviD.AC3-ViSiON.part01.rar

47.68 MB

 One.Missed.Call.2008.480p.BRRip.XviD.AC3-ViSiON.part02.rar

47.68 MB

 One.Missed.Call.2008.480p.BRRip.XviD.AC3-ViSiON.part03.rar

47.68 MB

 One.Missed.Call.2008.480p.BRRip.XviD.AC3-ViSiON.part04.rar

47.68 MB

 One.Missed.Call.2008.480p.BRRip.XviD.AC3-ViSiON.part05.rar

47.68 MB

 One.Missed.Call.2008.480p.BRRip.XviD.AC3-ViSiON.part06.rar

47.68 MB

 One.Missed.Call.2008.480p.BRRip.XviD.AC3-ViSiON.part07.rar

47.68 MB

 One.Missed.Call.2008.480p.BRRip.XviD.AC3-ViSiON.part08.rar

47.68 MB

 One.Missed.Call.2008.480p.BRRip.XviD.AC3-ViSiON.part09.rar

47.68 MB

 One.Missed.Call.2008.480p.BRRip.XviD.AC3-ViSiON.part10.rar

47.68 MB

 One.Missed.Call.2008.480p.BRRip.XviD.AC3-ViSiON.part11.rar

47.68 MB

 One.Missed.Call.2008.480p.BRRip.XviD.AC3-ViSiON.part12.rar

47.68 MB

 One.Missed.Call.2008.480p.BRRip.XviD.AC3-ViSiON.part13.rar

47.68 MB

 One.Missed.Call.2008.480p.BRRip.XviD.AC3-ViSiON.part14.rar

47.68 MB

 One.Missed.Call.2008.480p.BRRip.XviD.AC3-ViSiON.part15.rar

47.68 MB

 One.Missed.Call.2008.480p.BRRip.XviD.AC3-ViSiON.part16.rar

47.68 MB

 One.Missed.Call.2008.480p.BRRip.XviD.AC3-ViSiON.part17.rar

47.68 MB

 One.Missed.Call.2008.480p.BRRip.XviD.AC3-ViSiON.part18.rar

47.68 MB

 One.Missed.Call.2008.480p.BRRip.XviD.AC3-ViSiON.part19.rar

47.68 MB

 One.Missed.Call.2008.480p.BRRip.XviD.AC3-ViSiON.part20.rar

47.68 MB

 One.Missed.Call.2008.480p.BRRip.XviD.AC3-ViSiON.part21.rar

47.68 MB

 One.Missed.Call.2008.480p.BRRip.XviD.AC3-ViSiON.part22.rar

47.68 MB

 One.Missed.Call.2008.480p.BRRip.XviD.AC3-ViSiON.part23.rar

47.68 MB

 One.Missed.Call.2008.480p.BRRip.XviD.AC3-ViSiON.part24.rar

47.68 MB

 One.Missed.Call.2008.480p.BRRip.XviD.AC3-ViSiON.part25.rar

47.68 MB

 One.Missed.Call.2008.480p.BRRip.XviD.AC3-ViSiON.part26.rar

47.68 MB

 One.Missed.Call.2008.480p.BRRip.XviD.AC3-ViSiON.part27.rar

47.68 MB

 One.Missed.Call.2008.480p.BRRip.XviD.AC3-ViSiON.part28.rar

47.68 MB

 One.Missed.Call.2008.480p.BRRip.XviD.AC3-ViSiON.part29.rar

47.68 MB

 One.Missed.Call.2008.480p.BRRip.XviD.AC3-ViSiON.part30.rar

47.68 MB

 One.Missed.Call.2008.480p.BRRip.XviD.AC3-ViSiON.part31.rar

47.68 MB

 One.Missed.Call.2008.480p.BRRip.XviD.AC3-ViSiON.part32.rar

8.49 MB

 One.Missed.Call.2008.480p.BRRip.XviD.AC3-ViSiON.sfv

5.18 KB
 

tracker

leech seeds
 

Torrent description

Format : AVI
Format/Info : Audio Video Interleave
File size : 1.45 GiB
Duration : 1h 26mn
Overall bit rate : 2 393 Kbps
Writing application : VirtualDubMod 1.5.10.2 (build 2542/release)
Writing library : VirtualDubMod build 2542/release

Video
ID : 0
Format : MPEG-4 Visual
Format profile : Streaming [email protected]
Format settings, BVOP : Yes
Format settings, QPel : No
Format settings, GMC : No warppoints
Format settings, Matrix : Default (H.263)
Muxing mode : Packed bitstream
Codec ID : XVID
Codec ID/Hint : XviD
Duration : 1h 26mn
Bit rate : 1 935 Kbps
Width : 720 pixels
Height : 400 pixels
Display aspect ratio : 16/9
Frame rate : 23.976 fps
Resolution : 24 bits
Colorimetry : 4:2:0
Scan type : Progressive
Bits/(Pixel*Frame) : 0.280
Stream size : 1.17 GiB (81%)
Writing library : XviD 1.2.1 (UTC 2008-12-04)

Audio
ID : 1
Format : AC-3
Format/Info : Audio Coding 3
Codec ID : 2000
Duration : 1h 26mn
Bit rate mode : Constant
Bit rate : 448 Kbps
Channel(s) : 6 channels
Channel positions : Front: L C R, Surround: L R, LFE
Sampling rate : 48.0 KHz
Stream size : 278 MiB (19%)
Alignment : Split accross interleaves
Interleave, duration : 42 ms (1.00 video frame)
Interleave, preload duration : 500 ms

related torrents

Torrent name

health leech seeds Size
 

comments (0)

Main Menu