Horror

Nosferatu, eine Symphonie des Grauens / aka Nosferatu, a Symphony of Horror (Ultimate Edition)

  • Download 5x Faster
  • Download torrent
  • Direct Download
  • Rate this torrent +  |  -

Torrent info

Name:Nosferatu, eine Symphonie des Grauens / aka Nosferatu, a Symphony of Horror (Ultimate Edition)

Total Size: 1.45 GB

Magnet: Magnet Link

Seeds: 0

Leechers: 0

Stream: Watch Online @ Movie4u

Last Updated: 2010-03-19 19:41:36 (Update Now)

Torrent added: 2009-08-27 23:39:53




Torrent Files List


Nosferatu.Kino.1922.DVDRip.XviD.AC3.Ger.avi (Size: 1.45 GB) (Files: 4)

 Nosferatu.Kino.1922.DVDRip.XviD.AC3.Ger.avi

1.44 GB

 Nosferatu.Kino.1922.DVDRip.XviD.AC3.Ger.Eng.idx

10.43 KB

 Nosferatu.Kino.1922.DVDRip.XviD.AC3.Ger.Eng.sub

886.00 KB

 Nosferatu.Kino.1922.DVDRip.XviD.AC3.Ger.Rus.srt

17.36 KB
 

Announce URL: http://tracker.torrentfr.org:56666/announce

Torrent description

A cornerstone of the horror film, F.W. Murnau's NOSFERATU is triumphantly
reborn in this breathtaking new restoration by the F.W. Murnau Foundation.
Backed by an orchestral performance of Hans Erdmann's 1922 score, this Kino International edition is derived from a new high-definition transfer of Murnau's masterpiece, with unprecedented visual clarity and historical faithfulness to the original release version.

Source: THE ULTIMATE DVD EDITION
Original German intertitles, English and Russian subtitles.

Format : AVI
Format/Info : Audio Video Interleave
File size : 1.44 GiB
Duration : 1h 34mn
Overall bit rate : 2 194 Kbps
Writing application : VirtualDubMod 1.5.10.2 (build 2542/release)
Writing library : VirtualDubMod build 2542/release

Video
Format : MPEG-4 Visual
Format profile : Streaming [email protected]
Format settings, BVOP : Yes
Format settings, QPel : No
Format settings, GMC : No warppoints
Format settings, Matrix : Default
Codec ID : XVID
Codec ID/Hint : XviD
Duration : 1h 34mn
Bit rate : 2 054 Kbps
Width : 720 pixels
Height : 480 pixels
Display aspect ratio : 4/3
Frame rate : 29.970 fps
Standard : NTSC
Resolution : 24 bits
Colorimetry : 4:2:0
Scan type : Progressive
Bits/(Pixel*Frame) : 0.198
Stream size : 1.35 GiB (94%)
Writing library : XviD 1.2.1 (UTC 2008-12-04)

Audio
Format : AC-3
Format/Info : Audio Coding 3
Codec ID : 2000
Duration : 1h 34mn
Bit rate mode : Constant
Bit rate : 128 Kbps
Channel(s) : 2 channels
Channel positions : L R
Sampling rate : 48.0 KHz
Video delay : 26ms
Stream size : 86.3 MiB (6%)
Alignment : Split accross interleaves
Interleave, duration : 33 ms (1.00 video frame)
Interleave, preload duration : 500 ms

*********************************** FREAKYFLICKS ************************************

Freakyflicks is a free and open community dedicated to preserving and sharing cinematic art in the digital era. Our goal is to disseminate such works of art to the widest audience possible through the channels provided by P2P technology.

The Freakyflicks collection is limited to those films that have played an exceptional role in the history of cinema and its progression in becoming a great art. Films that are usually described as classic, cult, arthouse and avant-garde.

If you have films that fit this description feel free to share them and participate in our community. All you need do is include this tag in your upload and join us at the forum to announce your release.


'If we all seed just 1:1, give at least what we take, this torrent will NEVER DIE'

related torrents

Torrent name

health leech seeds Size
 


comments (0)

Main Menu