Horror

Nightmare Detective, [XviD Ita Mp3][ scambioetico org]

  • Download 5x Faster
  • Download torrent
  • Direct Download
  • Rate this torrent +  |  -
Nightmare Detective, [XviD Ita Mp3][ scambioetico org]

Free and Direct Download with Usenet 300GB+ free


Torrent info

Name:Nightmare Detective, [XviD Ita Mp3][ scambioetico org]

Total Size: 701.83 MB

Magnet: Magnet Link

Seeds: 4

Leechers: 1

Stream: Watch Online @ Movie4u

Last Updated: 2010-12-04 07:12:51 (Update Now)

Torrent added: 2009-08-27 23:34:19




Torrent Files List


Nightmare Detective.avi (Size: 701.83 MB) (Files: 1)

 Nightmare Detective.avi

701.83 MB
 

Announce URL: http://tracker.tntvillage.scambioetico.org:2710/announce

Torrent description

Nightmare Detective, [XviD - Ita Mp3][www.tntvillage.scambioetico.org]

Scheda del film

Titolo:Nightmare Detective
Titolo originale:Akumu tantei
Nazionalità:Giappone
Anno:2007
Genere:Fantastico, Thriller
Regia:Shinya Tsukamoto
Produzione:Aozoranoyukue, Hak yae, Yoru no pikunikku, The Longest Night in Shanghai
Distribuzione: Minerva Pictures
Data di uscita:Roma 2006 03 Aprile 2007 (Homevideo)

Cast

Masanobu Ando, Yoshio Harada, Hitomi, Ryuhei Matsuda, Ren Osugi, Shinya Tsukamoto

Scheda tecnica (Mediainfo)

General
Complete name : Nightmare Detective.avi
Format : AVI
Format/Info : Audio Video Interleave
File size : 702 MiB
Duration : 1h 46mn
Overall bit rate : 924 Kbps
Writing application : Nandub v1.0rc2
Writing library : Nandub build 1853/release

Video
Format : MPEG-4 Visual
Format profile : Streaming [email protected]
Format settings, BVOP : Yes
Format settings, QPel : No
Format settings, GMC : No warppoints
Format settings, Matrix : Default
Codec ID : XVID
Codec ID/Hint : XviD
Duration : 1h 46mn
Bit rate : 780 Kbps
Width : 592 pixels
Height : 320 pixels
Display aspect ratio : 1.850
Frame rate : 25.000 fps
Resolution : 24 bits
Colorimetry : 4:2:0
Scan type : Progressive
Bits/(Pixel*Frame) : 0.165
Stream size : 593 MiB (84%)
Writing library : XviD 1.1.0 (UTC 2005-11-22)

Audio
Format : MPEG Audio
Format version : Version 1
Format profile : Layer 3
Codec ID : 55
Codec ID/Hint : MP3
Duration : 1h 46mn
Bit rate mode : Variable
Bit rate : 131 Kbps
Channel(s) : 2 channels
Sampling rate : 48.0 KHz
Resolution : 16 bits
Stream size : 99.2 MiB (14%)
Alignment : Aligned on interleaves
Interleave, duration : 24 ms (0.60 video frame)
Interleave, preload duration : 461 ms

related torrents

Torrent name

health leech seeds Size
 

comments (0)

Main Menu