TV - Other

20 to 1 Cougars and Cradle Snatchers Aussie TV

  • Download 5x Faster
  • Download torrent
  • Direct Download
  • Rate this torrent +  |  -
20 to 1 Cougars and Cradle Snatchers Aussie TV

Anonymous and Direct Download 300GB+ free


Torrent info

Name:20 to 1 Cougars and Cradle Snatchers Aussie TV

Total Size: 348.41 MB

Magnet: Magnet Link

Seeds: 1

Leechers: 3

Stream: Watch Online @ Movie4u

Last Updated: 2010-09-27 09:02:28 (Update Now)

Torrent added: 2009-08-27 23:34:10




Torrent Files List


20 to 1 - Cougars and Cradle Snatchers.avi (Size: 348.41 MB) (Files: 7)

 20 to 1 - Cougars and Cradle Snatchers.avi

347.98 MB

 poster.png

289.25 KB

 201.jpg

44.85 KB

 203.jpg

28.69 KB

 204.jpg

28.57 KB

 202.jpg

25.48 KB

 205.jpg

23.31 KB
 

Announce URL: http://greekadiko.biz:2710/753a2cdee4174c562ce74fd5c85034f9/announce

Torrent description

IMG]20 to 1   Cougars and Cradle Snatchers   Aussie TV preview 0

Australian TV Show Counting down from 20 to number 1 Cougars and Cradle Snachers!
Continued at your Screen! :lol:




General
Complete name : 0 20 to 1 - Cougars and Cradle Snatchers.avi
Format : AVI
Format/Info : Audio Video Interleave
File size : 348 MiB
Duration : 42mn 52s
Overall bit rate : 1 135 Kbps
Writing application : VirtualDubMod 1.5.4.1 (build 2178/release)
Writing library : VirtualDubMod build 2178/release

Video
ID : 0
Format : MPEG-4 Visual
Format profile : Streaming [email protected]
Format settings, BVOP : Yes
Format settings, QPel : No
Format settings, GMC : No warppoints
Format settings, Matrix : Default (H.263)
Muxing mode : Packed bitstream
Codec ID : XVID
Codec ID/Hint : XviD
Duration : 42mn 52s
Bit rate : 935 Kbps
Width : 720 pixels
Height : 400 pixels
Display aspect ratio : 16/9
Frame rate : 25.000 fps
Resolution : 24 bits
Colorimetry : 4:2:0
Scan type : Progressive
Bits/(Pixel*Frame) : 0.130
Stream size : 287 MiB (82%)
Writing library : XviD 1.2.1 (UTC 2008-12-04)

Audio
ID : 1
Format : MPEG Audio
Format version : Version 1
Format profile : Layer 3
Codec ID : 55
Codec ID/Hint : MP3
Duration : 42mn 52s
Bit rate mode : Constant
Bit rate : 192 Kbps
Channel(s) : 2 channels
Sampling rate : 44.1 KHz
Resolution : 16 bits
Stream size : 58.9 MiB (17%)
Alignment : Split accross interleaves
Interleave, duration : 80 ms (2.00 video frames)
Interleave, preload duration : 500 ms





Screenshots:

20 to 1   Cougars and Cradle Snatchers   Aussie TV preview 1

20 to 1   Cougars and Cradle Snatchers   Aussie TV preview 2

20 to 1   Cougars and Cradle Snatchers   Aussie TV preview 3

20 to 1   Cougars and Cradle Snatchers   Aussie TV preview 4

related torrents

Torrent name

health leech seeds Size
 


comments (0)

Main Menu