Horror

Necessary Evil AC3 5,1 DVDRip[Eng]2009

  • Download 5x Faster
  • Download torrent
  • Direct Download
  • Rate this torrent +  |  -
Necessary Evil AC3 5,1 DVDRip[Eng]2009

Free and Direct Download with Usenet.nl 300GB+ free


Torrent info

Name:Necessary Evil AC3 5,1 DVDRip[Eng]2009

Total Size: 1.22 GB

Magnet: Magnet Link

Seeds: 1

Leechers: 2

Stream: Watch Online @ Movie4u

Last Updated: 2010-03-02 05:41:26 (Update Now)

Torrent added: 2009-08-27 23:26:24





Torrent Files List


Necessary Evil-AC3-5,1-DVDRip[Eng]2009.avi (Size: 1.22 GB) (Files: 3)

 Necessary Evil-AC3-5,1-DVDRip[Eng]2009.avi

1.22 GB

 Necessary Evil-AC3-5,1-DVDRip[Eng]2009.txt

2.78 KB

 Torrent downloaded from Demonoid.com.txt

0.05 KB
 

Announce URL: http://inferno.demonoid.com:3418/announce

Torrent description

http://www.imdb.com/title/tt1084733/

http://www.necessaryevilmovie.com/

User Rating:3.5/10 - 111 votes

Director:Peter J. Eaton

Cast:Donald Agnelli/Greg Collins/Drue Delio/James DuMont, and others.

Plot:
Deborah Fielding, seeker of the truth, will stop at nothing to uncover the layers of corruption that lie deep within the walls of Edgewater
Psychiatric Institute, even if the cost is her life. In a series of twisted events, this budding investigative journalist unlocks a Pandora's
Box of deceit. As she confronts uncertainties, authorities and demons from her past, she realizes they have been dwelling closer than she
thought. She finds that her seemingly perfect life is nothing more than a perfect lie.....


Info:

General
Complete name : Necessary Evil-AC3-5,1-DVDRip[Eng]2009\Necessary Evil-AC3-5,1-DVDRip[Eng]2009.avi
Format : AVI
Format/Info : Audio Video Interleave
File size : 1.22 GiB
Duration : 1h 26mn
Overall bit rate : 2 014 Kbps
Writing application : VirtualDubMod 1.5.4.1 (build 2178/release)
Writing library : VirtualDubMod build 2178/release

Video
Format : MPEG-4 Visual
Format profile : [email protected]
Format settings, BVOP : No
Format settings, QPel : No
Format settings, GMC : No warppoints
Format settings, Matrix : Default
Codec ID : XVID
Codec ID/Hint : XviD
Duration : 1h 26mn
Bit rate : 1 557 Kbps
Width : 592 pixels
Height : 336 pixels
Display aspect ratio : 16/9
Frame rate : 23.976 fps
Resolution : 24 bits
Colorimetry : 4:2:0
Scan type : Progressive
Bits/(Pixel*Frame) : 0.326
Stream size : 966 MiB (77%)
Writing library : XviD 1.1.2 (UTC 2006-11-01)

Audio
Format : AC-3
Format/Info : Audio Coding 3
Codec ID : 2000
Duration : 1h 26mn
Bit rate mode : Constant
Bit rate : 448 Kbps
Channel(s) : 6 channels
Channel positions : Front: L C R, Surround: L R, LFE
Sampling rate : 48.0 KHz
Stream size : 278 MiB (22%)
Alignment : Split accross interleaves
Interleave, duration : 42 ms (1.00 video frame)
Interleave, preload duration : 500 ms

Enjoy....

related torrents

Torrent name

health leech seeds Size

Necessary Evil 2009

0 0 4.06 GB 0
 

comments (0)

Main Menu