Horror

My Bloody Valentine 2009 DVDRIP XviD ZEKTORM

  • Download 5x Faster
  • Download torrent
  • Direct Download
  • Rate this torrent +  |  -
My Bloody Valentine 2009 DVDRIP XviD ZEKTORM

Free and Direct Download with Usenet.nl 300GB+ free


Torrent info

Name:My Bloody Valentine 2009 DVDRIP XviD ZEKTORM

Total Size: 708.90 MB

Magnet: Magnet Link

Seeds: 4

Leechers: 3

Stream: Watch Online @ Movie4u

Last Updated: 2010-09-22 08:12:23 (Update Now)

Torrent added: 2009-08-27 23:23:41





Torrent Files List


My.Bloody.Valentine.2009.DVDRIP.XviD-ZEKTORM.avi (Size: 708.90 MB) (Files: 4)

 My.Bloody.Valentine.2009.DVDRIP.XviD-ZEKTORM.avi

702.09 MB

 READ.hlp

11.42 KB

 Subs

  My.Bloody.Valentine.2009.DVDRIP.XviD-ZEKTORM.idx

94.24 KB

  My.Bloody.Valentine.2009.DVDRIP.XviD-ZEKTORM.sub

6.71 MB
 

Announce URL: http://denis.stalker.h3q.com:6969/announce

Torrent description

Title : My Bloody Valentine
Year : 2009
Genre : Crime | Horror | Mystery | Thriller
iMDB URL : http://www.imdb.com/title/tt1179891/

Complete name : My.Bloody.Valentine.2009.DVDRIP.XviD-ZEKTORM.avi
Format : AVI
File size : 702 MiB
Duration : 1h 41mn
Overall bit rate : 972 Kbps
Subtitles : English, Spanish (Format: VobSub)
Source : DVD NTSC

Video
Format : MPEG-4 Visual
Format profile : Streaming [email protected]
Codec ID : DX50
Codec ID/Hint : DivX 5
Duration : 1h 41mn
Bit rate : 837 Kbps
Width : 720 pixels
Height : 400 pixels
Display aspect ratio : 16/9
Frame rate : 23.976 fps
Resolution : 24 bits
Colorimetry : 4:2:0
Scan type : Progressive
Bits/(Pixel*Frame) : 0.121
Stream size : 605 MiB (86%)
Writing library : XviD

Audio
Format : MPEG Audio
Format version : Version 1
Format profile : Layer 3
Codec ID : 55
Codec ID/Hint : MP3
Duration : 1h 41mn
Bit rate mode : Constant
Bit rate : 128 Kbps
Minimum bit rate : 128 Kbps
Channel(s) : 2 channels
Sampling rate : 48.0 KHz
Resolution : 16 bits
Stream size : 92.5 MiB (13%)
Writing library : LAME3.98r
Encoding settings : CBR

related torrents

Torrent name

health leech seeds Size
 

comments (0)

Main Menu