Martial Arts

Fist of Fury (1972) DvDRiP Remastered AC3 ENG Subs PsiKnife 4331898 TPB

  • Download 5x Faster
  • Download torrent
  • Direct Download
  • Rate this torrent +  |  -

Torrent info

Name:Fist of Fury (1972) DvDRiP Remastered AC3 ENG Subs PsiKnife 4331898 TPB

Total Size: 1.86 GB

Magnet: Magnet Link

Seeds: 0

Leechers: 1

Stream: Watch Online @ Movie4u

Last Updated: 2015-09-09 23:13:26 (Update Now)

Torrent added: 2008-08-07 03:36:07



VPN For Torrents

Torrent Files List


Fist of Fury (1972) DvDRiP-RemasterAC3-ENGSubs-PsiKnife.divx (Size: 1.86 GB) (Files: 3)

 Fist of Fury (1972) DvDRiP-RemasterAC3-ENGSubs-PsiKnife.divx

1.86 GB

 Fist of Fury (1972) DvDRiP-RemasterAC3-ENGSubs-PsiKnife.srt

40.70 KB

 README for INFO or ANY AUDIO or SUB ISSUES!.txt

4.16 KB
 

tracker

leech seeds
 

Torrent description

Fist of Fury (1972) DvDRiP Remastered AC3-ENGSubs-PsiKnife

This is re-encode of the 7.5 Gig DVD+DL NTSC Rip of Fist of Fury by TEAM APEX, from their 45 gig release 'Bruce Lee ultimate Fully Remastered DVD Collection'.

It should be mentioned for Fist of Fury, the subs work fine, but for some reason the original DVD subs didn't include the opening narrative Chinese dialogue for the first minute or so. They will kick in when the spoken lines start, no worries.

You'l' need DivX codec installed to watch this on your computer, or a DivX compatible DVD Player if you watch it on a standalone. You'll also need AC3/DirectShow Audio codec installed on your computer.

*Thanks to mistertpitydafoo for his tips and suggestions on encoding quality DivX media*

~PsiKnife_KFT


Fist of Fury (1972) DvDRiP-RemasterAC3-ENGSubs-PsiKnife.divx

Format : DivX
Format/Info : Hack of AVI
File size : 1.86 GiB
Duration : 1h 46mn
Overall bit rate : 2510 Kbps
Video
Format : MPEG-4 Visual
Format settings, BVOP : Yes
Format settings, QPel : No
Format settings, GMC : No warppoints
Format settings, Matrix : Default
Muxing mode : Packet Bitstream
Codec ID : DX50
Codec ID/Hint : DivX 5
Duration : 1h 46mn
Bit rate : 1851 Kbps
Width : 720 pixels
Height : 480 pixels
Display aspect ratio : 4.615
Frame rate : 29.970 fps
Standard : NTSC
Resolution : 8 bits
Colorimetry : 4:2:0
Scan type : Progressive
Bits/(Pixel*Frame) : 0.179
Stream size : 1.37 GiB (74%)
Title : Video
Writing library : DivX 2151
Audio
Format : AC-3
Format/Info : Audio Coding 3
Codec ID : 2000
Duration : 1h 46mn
Bit rate mode : Constant
Bit rate : 320 Kbps
Channel(s) : 2 channels
Channel positions : L R
Sampling rate : 48.0 KHz
Stream size : 243 MiB (13%)
Alignment : Split accross interleaves
Interleave, duration : 33 ms (1.00 video frame)
Interleave, preload duration : 500 ms
Title : Audio
Audio
Format : AC-3
Format/Info : Audio Coding 3
Codec ID : 2000
Duration : 1h 46mn
Bit rate mode : Constant
Bit rate : 320 Kbps
Channel(s) : 2 channels
Channel positions : L R
Sampling rate : 48.0 KHz
Stream size : 243 MiB (13%)
Alignment : Split accross interleaves
Interleave, duration : 33 ms (1.00 video frame)
Interleave, preload duration : 500 ms
Title : Audio
Text
Format : DivX Subtitle
Codec ID : DXSB
Codec ID/Info : Subtitle in AVI from DivX networks
Width : 640 pixels
Height : 480 pixels
Resolution : 4 bits
Stream size : 1.19 MiB (0%)
Title : Subtitle

related torrents

Torrent name

health leech seeds Size
 


comments (0)

Main Menu