Horror

The Last Winter(2007)(Exclusive)DVDRipKooKoo

  • Download 5x Faster
  • Download torrent
  • Direct Download
  • Rate this torrent +  |  -
The Last Winter(2007)(Exclusive)DVDRipKooKoo

Anonymous and Free Direct Download


Torrent info

Name:The Last Winter(2007)(Exclusive)DVDRipKooKoo

Total Size: 1.07 GB

Magnet: Magnet Link

Seeds: 0

Leechers: 0

Stream: Watch Online @ Movie4u

Last Updated: 2015-07-29 10:12:15 (Update Now)

Torrent added: 2008-07-01 09:34:05



VPN For Torrents

Torrent Files List


Subtitles (Size: 1.07 GB) (Files: 7)

 Subtitles

  The Last Winter(2007)(Exclusive)[DVDRip][KooKoo].idx

113.21 KB

  The Last Winter(2007)(Exclusive)[DVDRip][KooKoo].sub

8.02 MB

 KooKoo.nfo

6.42 KB

 Sample.avi

10.28 MB

 The Last Winter(2007)(Exclusive)[DVDRip][KooKoo].avi

1.05 GB

 Torrent downloaded from Demonoid.com.txt

0.05 KB

 tracked_by_h33t_com.txt

0.02 KB
 

Announce URL:

Torrent description




±ÛÛÛÛÛ± ±ÛÛÛÛÛÛ±ÛÛÛÛÛÛ±ÛÛÛÛÛÛ±ÛÛÛÛÛ± ±ÛÛÛÛÛÛ±ÛÛÛÛÛÛ±ÛÛÛÛÛÛ
±ÛÛÛÛÛ±±ÛÛÛÛÛÛ±±ÛÛÛÛÛÛ±ÛÛÛÛÛÛ±ÛÛÛÛÛ±±ÛÛÛÛÛÛ±±ÛÛÛÛÛÛ±ÛÛÛÛÛÛ
±ÛÛÛÛÛ±ÛÛÛÛÛÛ± ±ÛÛÛÛÛÛ±ÛÛÛÛÛÛ±ÛÛÛÛÛ±ÛÛÛÛÛÛ± ±ÛÛÛÛÛÛ±ÛÛÛÛÛÛ
±ÛÛÛÛÛÛÛÛÛÛÛ± ±ÛÛÛÛÛÛ±ÛÛÛÛÛÛ±ÛÛÛÛÛÛÛÛÛÛÛ± ±ÛÛÛÛÛÛ±ÛÛÛÛÛÛ
±ÛÛÛÛÛÛÛÛÛÛ± ±ÛÛ±±ÛÛ±ÛÛ±±ÛÛ±ÛÛÛÛÛÛÛÛÛÛ± ±ÛÛ±±ÛÛ±ÛÛ±±ÛÛ
±ÛÛÛÛÛÛÛÛÛ± ±ÛÛ±±ÛÛ±ÛÛ±±ÛÛ±ÛÛÛÛÛÛÛÛÛ± ±ÛÛ±±ÛÛ±ÛÛ±±ÛÛ
±ÛÛÛÛÛÛÛÛÛ± ±ÛÛ±±ÛÛ±ÛÛ±±ÛÛ±ÛÛÛÛÛÛÛÛÛ± ±ÛÛ±±ÛÛ±ÛÛ±±ÛÛ
±ÛÛÛÛÛÛÛÛÛÛ± ±ÛÛÛÛÛÛ±ÛÛÛÛÛÛ±ÛÛÛÛÛÛÛÛÛÛ± ±ÛÛÛÛÛÛ±ÛÛÛÛÛÛ
±ÛÛÛÛÛÛÛÛÛÛÛ± ±ÛÛÛÛÛÛ±ÛÛÛÛÛÛ±ÛÛÛÛÛÛÛÛÛÛÛ± ±ÛÛÛÛÛÛ±ÛÛÛÛÛÛ
±ÛÛÛÛÛ±ÛÛÛÛÛÛ± ±ÛÛÛÛÛÛ±ÛÛÛÛÛÛ±ÛÛÛÛÛ±ÛÛÛÛÛÛ± ±ÛÛÛÛÛÛ±ÛÛÛÛÛÛ
±ÛÛÛÛÛ±±ÛÛÛÛÛÛ±±ÛÛÛÛÛÛ±ÛÛÛÛÛÛ±ÛÛÛÛÛ±±ÛÛÛÛÛÛ±±ÛÛÛÛÛÛ±ÛÛÛÛÛÛ
±ÛÛÛÛÛ± ±ÛÛÛÛÛÛ ±±±±±±±±ÛÛÛÛÛ± ±ÛÛÛÛÛÛ ±±±±±±±



*******************************************************************************
The Last Winter(2007)
*******************************************************************************

The American oil company KIC Corporation is building an ice road to explore the
remote Northern Artic National Wildlife Refuge seeking energy independence.
Independent environmentalists work together in a drilling base headed by the tough Ed
Pollack in a sort of agreement with the government, approving procedures and sending
reports of the operation. When one insane team member is found dead naked on the
snow, the environmentalist James Hoffman suspects that sour gases may have been
accidentally released in the spot provoking hallucinations and insanity in the group.
After a second fatal incident, he convinces Ed to travel with the team to a hospital for
examination. However, weird events happen trapping the group in the base.

http://www.imdb.com/title/tt0454864/

*******************************************************************************
File Information
*******************************************************************************
-------------------------------------------------------------------------------
General
Complete name : The Last Winter(2007)(Exclusive)[DVDRip][KooKoo].avi
Format : AVI
Format/Info : Audio Video Interleave
File size : 1.05 GiB
Duration : 1h 41mn
Overal bit rate : 1478 Kbps
Movie name : The Last Winter(Exclusive)
Director : Ripped By KooKoo
Law rating : Unrated
Writing application : Lavf51.19.0
IMIT : Includes English And Spanish Subtitles.
Product : DVD_VOLUME
Encoded_Original : DVD/NTSC/BB Exclusive
-------------------------------------------------------------------------------
Video
Format : MPEG-4 Visual
Format profile : [email protected]
Format settings, BVOP : No
Format settings, QPel : No
Format settings, GMC : No warppoints
Format settings, Matrix : Default
Codec ID : XVID
Codec ID/Hint : XviD
Duration : 1h 41mn
Bit rate : 1019 Kbps
Width : 624 pixels
Height : 272 pixels
Display aspect ratio : 2.25
Frame rate : 23.976 fps
Resolution : 8 bits
Colorimetry : 4:2:0
Scan type : Progressive
Bits/(Pixel*Frame) : 0.250
Stream size : 740 MiB
Writing library : XviD 1.1.2 (UTC 2006-11-01)
-------------------------------------------------------------------------------
Audio
Format : AC-3
Format/Info : Audio Coding 3
Codec ID : 2000
Duration : 1h 41mn
Bit rate mode : Constant
Bit rate : 448 Kbps
Channel(s) : 6 channels
Channel positions : Front: L C R, Rear: L R, LFE
Sampling rate : 48.0 KHz
Stream size : 325 MiB
Language : english
-------------------------------------------------------------------------------


*******************************************************************************
Screenshots
*******************************************************************************

The Last Winter(2007)(Exclusive)DVDRipKooKoo preview 0
The Last Winter(2007)(Exclusive)DVDRipKooKoo preview 1
The Last Winter(2007)(Exclusive)DVDRipKooKoo preview 2
The Last Winter(2007)(Exclusive)DVDRipKooKoo preview 3


*******************************************************************************
DVDCover
*******************************************************************************

The Last Winter(2007)(Exclusive)DVDRipKooKoo preview 4

------------------------------------------------------------------------------

Enjoy and keep this alive. The more you seed the quicker I can share my stuff with you.
~KooKoo

You can find me at h33t.com and DarksideRg

related torrents

Torrent name

health leech seeds Size
 


comments (0)

Main Menu