Horror

Mortuary DVDRiP XViD SB0[ BOX]

  • Download 5x Faster
  • Download torrent
  • Direct Download
  • Rate this torrent +  |  -
Mortuary DVDRiP XViD SB0[ BOX]

Free and Direct Download with Usenet 300GB+ free


Torrent info

Name:Mortuary DVDRiP XViD SB0[ BOX]

Total Size: 699.59 MB

Magnet: Magnet Link

Seeds: 0

Leechers: 0

Stream: Watch Online @ Movie4u

Last Updated: 2010-03-07 10:08:19 (Update Now)

Torrent added: 2009-08-27 23:13:16




Torrent Files List


Mortuary DVDRiP XViD SB0.nfo (Size: 699.59 MB) (Files: 2)

 Mortuary DVDRiP XViD SB0.nfo

4.08 KB

 Mortuary DVDRiP XViD SB0.avi

699.59 MB
 

Announce URL: http://www.twilighttorrents.net/announce.php?passkey=08908368149870e44ba3a2bedc2b5a16

Torrent description

Mortuary DVDRiP XViD SB0
*******************************************************************************

-------------------------------------------------------------------------------
General Information
-------------------------------------------------------------------------------
Type.................: Movie



Movie Information....: http://www.imdb.com/title/tt0415167/

-------------------------------------------------------------------------------
Post Information
-------------------------------------------------------------------------------
Posted by............: SB0

-------------------------------------------------------------------------------
Release Notes
-------------------------------------------------------------------------------
General
Complete name : Mortuary DVDRiP XViD SB0.avi
Format : AVI
Format/Info : Audio Video Interleave
File size : 700 MiB
Duration : 1h 29mn
Overall bit rate : 1 089 Kbps
Writing application : VirtualDubMod 1.5.4.1 (build 2178/release)
Writing library : VirtualDubMod build 2178/release

Video
Format : MPEG-4 Visual
Format profile : Streaming [email protected]
Format settings, BVOP : Yes
Format settings, QPel : No
Format settings, GMC : No warppoints
Format settings, Matrix : Custom
Codec ID : XVID
Codec ID/Hint : XviD
Duration : 1h 29mn
Bit rate : 975 Kbps
Width : 608 pixels
Height : 352 pixels
Display aspect ratio : 16/9
Frame rate : 25.000 fps
Resolution : 24 bits
Colorimetry : 4:2:0
Scan type : Progressive
Bits/(Pixel*Frame) : 0.182
Stream size : 626 MiB (90%)
Writing library : XviD 1.1.0 (UTC 2005-11-22)

Audio
Format : MPEG Audio
Format version : Version 1
Format profile : Layer 3
Codec ID : 55
Codec ID/Hint : MP3
Duration : 1h 29mn
Bit rate mode : Variable
Bit rate : 101 Kbps
Nominal bit rate : 112 Kbps
Channel(s) : 2 channels
Sampling rate : 44.1 KHz
Resolution : 16 bits
Stream size : 65.2 MiB (9%)
Alignment : Aligned on interleaves
Interleave, duration : 26 ms (0.65 video frame)
Interleave, preload duration : 649 ms
Writing library : LAME3.97
Encoding settings : -m j -V 4 -q 2 -lowpass 15.6 --abr 112

A family moves to a small town in California where they plan on starting a new
life while running a long-abandoned funeral home. The locals fear the place,
which is suspected to be on haunted ground.

related torrents

Torrent name

health leech seeds Size

Coma Mortuary-RELOADED

1 3 3.59 GB 0
 

comments (0)

Main Menu