Music - Other

[FLAC] Lucio Battisti Emozioni (1970) [tntvillage org]

  • Download 5x Faster
  • Download torrent
  • Direct Download
  • Rate this torrent +  |  -
[FLAC] Lucio Battisti Emozioni (1970) [tntvillage org]

Anonymous and Free Direct Download


Torrent info

Name:[FLAC] Lucio Battisti Emozioni (1970) [tntvillage org]

Total Size: 269.54 MB

Magnet: Magnet Link

Seeds: 0

Leechers: 0

Stream: Watch Online @ Movie4u

Last Updated: 2011-01-03 09:59:49 (Update Now)

Torrent added: 2009-08-27 23:03:08



VPN For Torrents

Torrent Files List


Lucio Battisti - 1970 - Emozioni.flac (Size: 269.54 MB) (Files: 1)

 Lucio Battisti - 1970 - Emozioni.flac

269.54 MB
 

Announce URL:

Torrent description

LUCIO BATTISTI
Emozioni

Titolo: Emozioni
Artista: Lucio Battisti
Anno Pubblicazione: 1970
Durata: 45 min : 07 sec
Supporto: 1 CD
Tracce: 12
Genere: Musica Leggera
Etichetta: Ricordi


Recensione:
Emozioni è il secondo album di Lucio Battisti, con etichetta Ricordi. È un album antologico, che raccoglie i suoi primi brani e canzoni provenienti dagli ultimi cinque singoli. Fu pubblicato alla fine del 1970. Primo album di Battisti ad aver raggiunto il primo posto in classifica (vi rimase per due settimane non consecutive fra il gennaio e il febbraio del 1971).

Le dodici tracce del 33 giri sono state i primi grandi successi dell'artista reatino, a partire da Fiori rosa, fiori di pesco e Acqua azzurra, acqua chiara vincitrici del Festivalbar, fino alla classiche Emozioni e Mi ritorni in mente. Di fatto, a parte Dolce di giorno e Era, tutte gli altri brani sono parte della produzione di Battisti e Mogol che rimarrà impressa nelle menti della gente, anche a distanza di anni.


Track List:
1. Fiori rosa, fiori di pesco - 3:16
2. Dolce di giorno - 2:38
3. Il tempo di morire - 5:40
4. Mi ritorni in mente - 3:41
5. 7 e 40 - 3:32
6. Emozioni - 4:44
7. Dieci ragazze - 2:54
8. Acqua azzurra, acqua chiara - 3:36
9. Era - 2:56
10. Non è Francesca - 3:40
11. Io vivrò (senza te) - 3:53
12. Anna - 4:37


EAC Log:
Exact Audio Copy V0.99 prebeta 3 from 28. July 2007

EAC extraction logfile from 26. December 2007, 14:43

Lucio Battisti / Emozioni

Used drive : _NEC DVD_RW ND-3550A Adapter: 0 ID: 0

Read mode : Secure
Utilize accurate stream : Yes
Defeat audio cache : Yes
Make use of C2 pointers : No

Read offset correction : 48
Overread into Lead-In and Lead-Out : No
Fill up missing offset samples with silence : Yes
Delete leading and trailing silent blocks : No
Null samples used in CRC cal****ions : Yes
Used interface : Installed external ASPI interface

Used output format : Internal WAV Routines
Sample format : 44.100 Hz; 16 Bit; Stereo


TOC of the extracted CD

Track | Start | Length | Start sector | End sector
---------------------------------------------------------
1 | 0:00.00 | 3:14.22 | 0 | 14571
2 | 3:14.22 | 2:39.40 | 14572 | 26536
3 | 5:53.62 | 5:38.66 | 26537 | 51952
4 | 11:32.53 | 3:41.49 | 51953 | 68576
5 | 15:14.27 | 3:32.24 | 68577 | 84500
6 | 18:46.51 | 4:47.66 | 84501 | 106091
7 | 23:34.42 | 2:57.58 | 106092 | 119424
8 | 26:32.25 | 3:33.67 | 119425 | 135466
9 | 30:06.17 | 2:57.00 | 135467 | 148741
10 | 33:03.17 | 3:56.31 | 148742 | 166472
11 | 36:59.48 | 3:54.53 | 166473 | 184075
12 | 40:54.26 | 4:37.47 | 184076 | 204897

Range status and errors

Selected range

Filename C:\RipBattisti\Lucio Battisti - Emozioni.wav

Peak level 100.0 %
Range quality 100.0 %
Test CRC BE1BA66C
Copy CRC BE1BA66C
Copy OK

No errors occurred

AccurateRip summary

Track 1 not present in database
Track 2 not present in database
Track 3 not present in database
Track 4 not present in database
Track 5 not present in database
Track 6 not present in database
Track 7 not present in database
Track 8 not present in database
Track 9 not present in database
Track 10 not present in database
Track 11 not present in database
Track 12 not present in database

None of the tracks are present in the AccurateRip database

End of status report

ed2k:
ed2k://|file|Lucio_Battisti_-_1970_-_Emozioni.flac|282636315|B4183D52789EC1EA077384D4EEE04884|h=LSHN4BX3P2VRDIPHGIIFZYG7JDUCQRXJ|/

related torrents

Torrent name

health leech seeds Size
 


comments (0)

Main Menu