Music - Other

[FLAC EAC CUE]Ray Charles Berlin, 1962[colombo bt org]

  • Download 5x Faster
  • Download torrent
  • Direct Download
  • Rate this torrent +  |  -
[FLAC EAC CUE]Ray Charles Berlin, 1962[colombo bt org]

Free and Direct Download with Usenet 300GB+ free


Torrent info

Name:[FLAC EAC CUE]Ray Charles Berlin, 1962[colombo bt org]

Total Size: 411.34 MB

Magnet: Magnet Link

Seeds: 0

Leechers: 0

Stream: Watch Online @ Movie4u

Last Updated: 2016-03-17 20:35:03 (Update Now)

Torrent added: 2009-08-27 23:02:23




Torrent Files List


01 - Band Intro.flac (Size: 411.34 MB) (Files: 28)

 01 - Band Intro.flac

5.77 MB

 02 - Strike Up the Band.flac

15.90 MB

 03 - One Mint Julep.flac

18.76 MB

 04 - I Got a Woman.flac

41.60 MB

 05 - Georgia on My Mind.flac

32.94 MB

 06 - Margie.flac

15.02 MB

 07 - The Danger Zone.flac

19.56 MB

 08 - Hallelujah I Love Her So.flac

19.56 MB

 09 - Come Rain or Come Shine.flac

41.58 MB

 10 - Hide nor Hair.flac

20.12 MB

 11 - Alexander's Ragtime Band.flac

16.20 MB

 12 - I Believe to My Soul.flac

21.90 MB

 13 - Hit the Road, Jack.flac

16.82 MB

 14 - The Right Time.flac

27.29 MB

 15 - Bye, Bye Love.flac

14.20 MB

 16 - Unchain My Heart.flac

18.53 MB

 17 - What'd I Say.flac

25.71 MB

 Berlin, 1962.CUE

2.44 KB

 Berlin, 1962.log

4.89 KB

 Booklet

  Berlin, 1962 Booklet01.png

9.45 MB

  Berlin, 1962 Booklet02.png

2.38 MB

  Berlin, 1962 Booklet03.png

690.63 KB

  Berlin, 1962 Booklet04.png

9.70 MB

  Berlin, 1962 cover01.png

4.44 MB

  Berlin, 1962 disc01.png

3.47 MB

  Berlin, 1962 tray01.png

5.69 MB

  Berlin,1962 disc.png

4.07 MB

 Ray Charles - Berlin, 1962.m3u

0.46 KB
 

tracker

leech seeds
 

Torrent description

RAY CHARLES - BERLIN, 1962

Release data: 1996
Genre: R&B
FLAC

TRACKLIST:
1. Band Intro
2. Strike up the Band
3. One Mint Julep
4. I Got a Woman
5. Georgia on My Mind
6. Margie
7. Danger Zone
8. Hallelujah, I Love Her So
9. Come Rain or Come Shine
10. Hide nor Hair
11. Alexander's Ragtime Band
12. I Believe to My Soul
13. Hit the Road Jack
14. Night Time Is the Right Time
15. Bye Bye Love
16. Unchain My Heart
17. What'd I Say

LOG FILE:
EAC extraction logfile from 8. October 2007, 17:48 for CD
Ray Charles / Berlin, 1962

Used drive : TSSTcorpDVD+-RW TS-H653A Adapter: 3 ID: 0
Read mode : Secure with NO C2, accurate stream, disable cache
Read offset correction : 6
Overread into Lead-In and Lead-Out : No

Used output format : C:\Program Files\FLAC\flac.exe (User Defined Encoder)
320 kBit/s
Additional command line options : -8 -V -T "ARTIST=%a" -T "TITLE=%t" -T "ALBUM=%g" -T "DATE=%y" -T "TRACKNUMBER=%n" -T "GENRE=%m" -T "COMMENT=EAC Flac 1.1.4 -8" %s

Other options :
Fill up missing offset samples with silence : Yes
Delete leading and trailing silent blocks : No
Native Win32 interface for Win NT & 2000


Track 1
Filename E:\Files Upload_P\Ray Charles - Berlin, 1962 (1996) [FLAC] {Pablo J.A.T.P.}\01 - Band Intro.wav

Pre-gap length 0:00:02.00

Peak level 100.0 %
Track quality 99.8 %
Test CRC BE3CF54B
Copy CRC BE3CF54B
Copy OK

Track 2
Filename E:\Files Upload_P\Ray Charles - Berlin, 1962 (1996) [FLAC] {Pablo J.A.T.P.}\02 - Strike Up the Band.wav

Peak level 100.0 %
Track quality 100.0 %
Test CRC B07FC70A
Copy CRC B07FC70A
Copy OK

Track 3
Filename E:\Files Upload_P\Ray Charles - Berlin, 1962 (1996) [FLAC] {Pablo J.A.T.P.}\03 - One Mint Julep.wav

Peak level 100.0 %
Track quality 99.9 %
Test CRC 0CD0BD2C
Copy CRC 0CD0BD2C
Copy OK

Track 4
Filename E:\Files Upload_P\Ray Charles - Berlin, 1962 (1996) [FLAC] {Pablo J.A.T.P.}\04 - I Got a Woman.wav

Peak level 100.0 %
Track quality 100.0 %
Test CRC 28DF809C
Copy CRC 28DF809C
Copy OK

Track 5
Filename E:\Files Upload_P\Ray Charles - Berlin, 1962 (1996) [FLAC] {Pablo J.A.T.P.}\05 - Georgia on My Mind.wav

Peak level 100.0 %
Track quality 100.0 %
Test CRC A5C15A59
Copy CRC A5C15A59
Copy OK

Track 6
Filename E:\Files Upload_P\Ray Charles - Berlin, 1962 (1996) [FLAC] {Pablo J.A.T.P.}\06 - Margie.wav

Peak level 100.0 %
Track quality 100.0 %
Test CRC 40FCD47C
Copy CRC 40FCD47C
Copy OK

Track 7
Filename E:\Files Upload_P\Ray Charles - Berlin, 1962 (1996) [FLAC] {Pablo J.A.T.P.}\07 - The Danger Zone.wav

Peak level 86.8 %
Track quality 99.9 %
Test CRC AF18E7BD
Copy CRC AF18E7BD
Copy OK

Track 8
Filename E:\Files Upload_P\Ray Charles - Berlin, 1962 (1996) [FLAC] {Pablo J.A.T.P.}\08 - Hallelujah I Love Her So.wav

Peak level 93.7 %
Track quality 100.0 %
Test CRC 69B15547
Copy CRC 69B15547
Copy OK

Track 9
Filename E:\Files Upload_P\Ray Charles - Berlin, 1962 (1996) [FLAC] {Pablo J.A.T.P.}\09 - Come Rain or Come Shine.wav

Peak level 100.0 %
Track quality 100.0 %
Test CRC 9EE44BFE
Copy CRC 9EE44BFE
Copy OK

Track 10
Filename E:\Files Upload_P\Ray Charles - Berlin, 1962 (1996) [FLAC] {Pablo J.A.T.P.}\10 - Hide nor Hair.wav

Peak level 99.4 %
Track quality 99.9 %
Test CRC A7C00717
Copy CRC A7C00717
Copy OK

Track 11
Filename E:\Files Upload_P\Ray Charles - Berlin, 1962 (1996) [FLAC] {Pablo J.A.T.P.}\11 - Alexander's Ragtime Band.wav

Peak level 100.0 %
Track quality 99.9 %
Test CRC DF103F81
Copy CRC DF103F81
Copy OK

Track 12
Filename E:\Files Upload_P\Ray Charles - Berlin, 1962 (1996) [FLAC] {Pablo J.A.T.P.}\12 - I Believe to My Soul.wav

Peak level 97.5 %
Track quality 99.9 %
Test CRC F0944E14
Copy CRC F0944E14
Copy OK

Track 13
Filename E:\Files Upload_P\Ray Charles - Berlin, 1962 (1996) [FLAC] {Pablo J.A.T.P.}\13 - Hit the Road, Jack.wav

Peak level 99.9 %
Track quality 100.0 %
Test CRC D68766DB
Copy CRC D68766DB
Copy OK

Track 14
Filename E:\Files Upload_P\Ray Charles - Berlin, 1962 (1996) [FLAC] {Pablo J.A.T.P.}\14 - The Right Time.wav

Peak level 93.5 %
Track quality 100.0 %
Test CRC 9D0D3AA9
Copy CRC 9D0D3AA9
Copy OK

Track 15
Filename E:\Files Upload_P\Ray Charles - Berlin, 1962 (1996) [FLAC] {Pablo J.A.T.P.}\15 - Bye, Bye Love.wav

Peak level 100.0 %
Track quality 100.0 %
Test CRC 3DD3A746
Copy CRC 3DD3A746
Copy OK

Track 16
Filename E:\Files Upload_P\Ray Charles - Berlin, 1962 (1996) [FLAC] {Pablo J.A.T.P.}\16 - Unchain My Heart.wav

Peak level 99.7 %
Track quality 100.0 %
Test CRC 3B3C1D2C
Copy CRC 3B3C1D2C
Copy OK

Track 17
Filename E:\Files Upload_P\Ray Charles - Berlin, 1962 (1996) [FLAC] {Pablo J.A.T.P.}\17 - What'd I Say.wav

Peak level 100.0 %
Track quality 100.0 %
Test CRC F102CBA4
Copy CRC F102CBA4
Copy OK

No errors occured


End of status report

related torrents

Torrent name

health leech seeds Size
 

comments (0)

Main Menu