Music - Other

[FLAC EAC CUE]Chuck Berry The Great Twenty Eight[colombo bt org]

  • Download 5x Faster
  • Download torrent
  • Direct Download
  • Rate this torrent +  |  -
[FLAC EAC CUE]Chuck Berry The Great Twenty Eight[colombo bt org]

Anonymous and Direct Download 300GB+ free


Torrent info

Name:[FLAC EAC CUE]Chuck Berry The Great Twenty Eight[colombo bt org]

Total Size: 406.35 MB

Magnet: Magnet Link

Seeds: 0

Leechers: 0

Stream: Watch Online @ Movie4u

Last Updated: 2016-03-23 01:24:34 (Update Now)

Torrent added: 2009-08-27 23:02:21




Torrent Files List


01 - Maybellene.flac (Size: 378.88 MB) (Files: 36)

 01 - Maybellene.flac

13.70 MB

 02 - 30 Days.flac

14.18 MB

 03 - You Can't Catch Me.flac

14.01 MB

 04 - Too Much Monkey Business.flac

17.50 MB

 06 - Roll Over Beethoven.flac

10.63 MB

 07 - Havana Moon.flac

15.50 MB

 08 - School Days.flac

16.86 MB

 09 - Rock And Roll Music.flac

15.03 MB

 10 - Oh Baby Doll.flac

15.08 MB

 11 - Reelin' & Rockin'.flac

18.83 MB

 12 - Sweet Little Sixteen.flac

18.21 MB

 13 - Johnny B. Goode.flac

16.55 MB

 14 - Around And Around.flac

12.98 MB

 15 - Carol.flac

16.40 MB

 16 - Beautiful Delilah.flac

11.68 MB

 17 - Memphis.flac

11.13 MB

 18 - Sweet Little Rock And Roller.flac

13.39 MB

 20 - Almost Grown.flac

14.21 MB

 21 - Back In The USA.flac

14.55 MB

 22 - Let It Rock.flac

11.02 MB

 23 - Bye Bye Johnny.flac

10.94 MB

 24 - I'm Talking About You.flac

9.05 MB

 25 - Come On.flac

10.19 MB

 26 - Nadine.flac

14.47 MB

 27 - No Particular Place To Go.flac

16.69 MB

 28 - I Want To Be Your Driver.flac

15.07 MB

 Booklet

  Chuck Berry - Back.jpg

1.40 MB

  Chuck Berry - Booklet 1 Cover.jpg

1.97 MB

  Chuck Berry - Booklet 2.jpg

2.17 MB

  Chuck Berry - Booklet 3 Track Dates.jpg

1.60 MB

  Chuck Berry - Booklet 4.jpg

1.82 MB

  Chuck Berry - Disk.jpg

1.99 MB

 Chuck Berry - Chuck Berry - The Great-Twenty-Eight.m3u

1.94 KB

 Chuck Berry - Cover Small.jpg

53.40 KB

 Chuck Berry - The Great-Twenty-Eight.CUE

4.52 KB

 Chuck Berry - The Great-Twenty-Eight.log

7.75 KB
 

tracker

leech seeds
 

Torrent description

The Great Twenty-Eight is a greatest hits album by classic rock and roller Chuck Berry, released in 1982. In 2003, the album was ranked number 21 on Rolling Stone magazine's list of the 500 greatest albums of all time.
------------------------------------
INFOS:
Released 1982
Recorded 1955-1965
Genre Rock and roll
Length 70:57
Label Chess Records
------------------------------------
TRAKLIST:
1. "Maybellene" ? 2:18 (from single, 1955)
2. "Thirty Days (To Come Back Home)" ? 2:24 (from single, 1955)
3. "You Can't Catch Me" ? 2:42 (from single, 1956)
4. "Too Much Monkey Business" ? 2:53 (from single, 1956)
5. "Brown Eyed Handsome Man" ? 2:17 (from single, 1956)
6. "Roll Over Beethoven" ? 2:23 (from single, 1956)
7. "Havana" ? 3:05 (from single, 1956)
8. "School Days" ? 2:40 (from single, 1957)
9. "Rock and Roll Music" ? 2:30 (from single, 1957)
10. "Oh Baby Doll" ? 2:33 (from single, 1957)
11. "Reelin' and Rockin'" ? 3:14 (from single, 1958)
12. "Sweet Little Sixteen" ? 2:55 (from single, 1958)
13. "Johnny B. Goode" ? 2:38 (from single, 1958)
14. "Around and Around" ? 2:35 (from single, 1958)
15. "Carol" ? 2:46 (from single, 1958)
16. "Beautiful Delilah" ? 2:08 (from single, 1958)
17. "Memphis" ? 2:12 (from single, 1959)
18. "Sweet Little Rock and Roller" ? 2:20 (from single, 1958)
19. "Little Queenie" ? 2:38 (from single, 1959)
20. "Almost Grown" ? 2:19 (from single, 1959)
21. "Back in the U.S.A." ? 2:25 (from single, 1959)
22. "Let It Rock" ? 1:50 (from single, 1960)
23. "Bye Bye Johnny" ? 2:03 (from single, 1960)
24. "I'm Talking About You" ? 1:48 (from single, 1961)
25. "Come On" ? 1:50 (from single, 1961)
26. "Nadine (Is It You?)" ? 2:30 (from single, 1964)
27. "No Particular Place to Go" ? 2:44 (from single, 1964)
28. "I Want To Be Your Driver" ? 2:15 (from Chuck Berry in London, 1965)


----------------------------------
EAC LOGFILE

EAC extraction logfile from 18. October 2006, 17:38 for CD
Chuck Berry / Chuck Berry - The Great-Twenty-Eight

Used drive : HL-DT-STDVDRAM GSA-4163B Adapter: 3 ID: 0
Read mode : Secure with NO C2, accurate stream, disable cache
Read offset correction : 667
Overread into Lead-In and Lead-Out : No

Used output format : C:\Programmi\Exact Audio Copy\FLAC\FLAC.EXE (User Defined Encoder)
320 kBit/s
Additional command line options : -5 -V -T "ARTIST=%a" -T "TITLE=%t" -T "ALBUM=%g" -T "DATE=%y" -T "TRACKNUMBER=%n" -T "GENRE=%m" -T "COMMENT=EAC Flac 1.1.2 -5" %s

Other options :
Fill up missing offset samples with silence : Yes
Delete leading and trailing silent blocks : No
Native Win32 interface for Win NT & 2000


Track 1
Filename D:\Documenti\Chuck Berry - The Great-Twenty-Eight\01 - Maybellene.wav

Pre-gap length 0:00:02.44

Peak level 74.0 %
Track quality 100.0 %
Test CRC 06B5149A
Copy CRC 06B5149A
Copy OK

Track 2
Filename D:\Documenti\Chuck Berry - The Great-Twenty-Eight\02 - 30 Days.wav

Pre-gap length 0:00:01.49

Peak level 76.4 %
Track quality 99.9 %
Test CRC 47D87741
Copy CRC 47D87741
Copy OK

Track 3
Filename D:\Documenti\Chuck Berry - The Great-Twenty-Eight\03 - You Can't Catch Me.wav

Pre-gap length 0:00:02.26

Peak level 80.7 %
Track quality 99.9 %
Test CRC 76331743
Copy CRC 76331743
Copy OK

Track 4
Filename D:\Documenti\Chuck Berry - The Great-Twenty-Eight\04 - Too Much Monkey Business.wav

Pre-gap length 0:00:01.56

Peak level 74.9 %
Track quality 100.0 %
Test CRC BB0BACC6
Copy CRC BB0BACC6
Copy OK

Track 5
Filename D:\Documenti\Chuck Berry - The Great-Twenty-Eight\05 - Brown-Eyed Handsome Man.wav

Pre-gap length 0:00:01.66

Peak level 68.0 %
Track quality 100.0 %
Test CRC B3ED0339
Copy CRC B3ED0339
Copy OK

Track 6
Filename D:\Documenti\Chuck Berry - The Great-Twenty-Eight\06 - Roll Over Beethoven.wav

Pre-gap length 0:00:01.66

Peak level 48.8 %
Track quality 100.0 %
Test CRC A07DD525
Copy CRC A07DD525
Copy OK

Track 7
Filename D:\Documenti\Chuck Berry - The Great-Twenty-Eight\07 - Havana Moon.wav

Pre-gap length 0:00:02.50

Peak level 83.4 %
Track quality 99.9 %
Test CRC DF62D6C9
Copy CRC DF62D6C9
Copy OK

Track 8
Filename D:\Documenti\Chuck Berry - The Great-Twenty-Eight\08 - School Days.wav

Pre-gap length 0:00:01.26

Peak level 84.3 %
Track quality 100.0 %
Test CRC 3C3ADF08
Copy CRC 3C3ADF08
Copy OK

Track 9
Filename D:\Documenti\Chuck Berry - The Great-Twenty-Eight\09 - Rock And Roll Music.wav

Pre-gap length 0:00:01.84

Peak level 86.7 %
Track quality 100.0 %
Test CRC D7D3DD86
Copy CRC D7D3DD86
Copy OK

Track 10
Filename D:\Documenti\Chuck Berry - The Great-Twenty-Eight\10 - Oh Baby Doll.wav

Pre-gap length 0:00:01.60

Peak level 93.6 %
Track quality 100.0 %
Test CRC 7523B3FA
Copy CRC 7523B3FA
Copy OK

Track 11
Filename D:\Documenti\Chuck Berry - The Great-Twenty-Eight\11 - Reelin' & Rockin'.wav

Pre-gap length 0:00:02.04

Peak level 80.2 %
Track quality 100.0 %
Test CRC 7DFCAD8A
Copy CRC 7DFCAD8A
Copy OK

Track 12
Filename D:\Documenti\Chuck Berry - The Great-Twenty-Eight\12 - Sweet Little Sixteen.wav

Pre-gap length 0:00:01.53

Peak level 80.3 %
Track quality 100.0 %
Test CRC 63D5E3D8
Copy CRC 63D5E3D8
Copy OK

Track 13
Filename D:\Documenti\Chuck Berry - The Great-Twenty-Eight\13 - Johnny B. Goode.wav

Pre-gap length 0:00:01.80

Peak level 74.6 %
Track quality 100.0 %
Test CRC DDED523C
Copy CRC DDED523C
Copy OK

Track 14
Filename D:\Documenti\Chuck Berry - The Great-Twenty-Eight\14 - Around And Around.wav

Pre-gap length 0:00:01.82

Peak level 76.5 %
Track quality 100.0 %
Test CRC A9C49EF7
Copy CRC A9C49EF7
Copy OK

Track 15
Filename D:\Documenti\Chuck Berry - The Great-Twenty-Eight\15 - Carol.wav

Pre-gap length 0:00:01.66

Peak level 95.5 %
Track quality 100.0 %
Test CRC C777D6B5
Copy CRC C777D6B5
Copy OK

Track 16
Filename D:\Documenti\Chuck Berry - The Great-Twenty-Eight\16 - Beautiful Delilah.wav

Pre-gap length 0:00:01.97

Peak level 82.6 %
Track quality 100.0 %
Test CRC 12192693
Copy CRC 12192693
Copy OK

Track 17
Filename D:\Documenti\Chuck Berry - The Great-Twenty-Eight\17 - Memphis.wav

Pre-gap length 0:00:02.26

Peak level 66.7 %
Track quality 100.0 %
Test CRC 7875B916
Copy CRC 7875B916
Copy OK

Track 18
Filename D:\Documenti\Chuck Berry - The Great-Twenty-Eight\18 - Sweet Little Rock And Roller.wav

Pre-gap length 0:00:01.53

Peak level 93.1 %
Track quality 100.0 %
Test CRC 24E14BDD
Copy CRC 24E14BDD
Copy OK

Track 19
Filename D:\Documenti\Chuck Berry - The Great-Twenty-Eight\19 - Little Queenie.wav

Pre-gap length 0:00:02.50

Peak level 81.2 %
Track quality 100.0 %
Test CRC A8E31E8F
Copy CRC A8E31E8F
Copy OK

Track 20
Filename D:\Documenti\Chuck Berry - The Great-Twenty-Eight\20 - Almost Grown.wav

Pre-gap length 0:00:02.49

Peak level 78.1 %
Track quality 100.0 %
Test CRC 1225C36D
Copy CRC 1225C36D
Copy OK

Track 21
Filename D:\Documenti\Chuck Berry - The Great-Twenty-Eight\21 - Back In The USA.wav

Pre-gap length 0:00:01.96

Peak level 89.3 %
Track quality 100.0 %
Test CRC 21CBD18B
Copy CRC 21CBD18B
Copy OK

Track 22
Filename D:\Documenti\Chuck Berry - The Great-Twenty-Eight\22 - Let It Rock.wav

Pre-gap length 0:00:01.53

Peak level 93.1 %
Track quality 100.0 %
Test CRC 9623D0EA
Copy CRC 9623D0EA
Copy OK

Track 23
Filename D:\Documenti\Chuck Berry - The Great-Twenty-Eight\23 - Bye Bye Johnny.wav

Pre-gap length 0:00:02.22

Peak level 81.0 %
Track quality 100.0 %
Test CRC 2811E0D8
Copy CRC 2811E0D8
Copy OK

Track 24
Filename D:\Documenti\Chuck Berry - The Great-Twenty-Eight\24 - I'm Talking About You.wav

Pre-gap length 0:00:01.70

Peak level 77.8 %
Track quality 100.0 %
Test CRC 3A3EA715
Copy CRC 3A3EA715
Copy OK

Track 25
Filename D:\Documenti\Chuck Berry - The Great-Twenty-Eight\25 - Come On.wav

Pre-gap length 0:00:02.53

Peak level 82.5 %
Track quality 99.9 %
Test CRC 644B54DF
Copy CRC 644B54DF
Copy OK

Track 26
Filename D:\Documenti\Chuck Berry - The Great-Twenty-Eight\26 - Nadine.wav

Pre-gap length 0:00:02.44

Peak level 95.5 %
Track quality 100.0 %
Test CRC 27AF6DC6
Copy CRC 27AF6DC6
Copy OK

Track 27
Filename D:\Documenti\Chuck Berry - The Great-Twenty-Eight\27 - No Particular Place To Go.wav

Pre-gap length 0:00:01.86

Peak level 75.6 %
Track quality 100.0 %
Test CRC 5145B67A
Copy CRC 5145B67A
Copy OK

Track 28
Filename D:\Documenti\Chuck Berry - The Great-Twenty-Eight\28 - I Want To Be Your Driver.wav

Pre-gap length 0:00:01.53

Peak level 84.0 %
Track quality 100.0 %
Test CRC 508D8608
Copy CRC 508D8608
Copy OK

No errors occured


End of status report

related torrents

Torrent name

health leech seeds Size
 


comments (0)

Main Menu