Music - Other

[FLAC EAC CUE]Bruce Springsteen USA Blues[colombo bt org]

  • Download 5x Faster
  • Download torrent
  • Direct Download
  • Rate this torrent +  |  -
[FLAC EAC CUE]Bruce Springsteen USA Blues[colombo bt org]

Free and Direct Download with Usenet 300GB+ free


Torrent info

Name:[FLAC EAC CUE]Bruce Springsteen USA Blues[colombo bt org]

Total Size: 405.89 MB

Magnet: Magnet Link

Seeds: 0

Leechers: 0

Stream: Watch Online @ Movie4u

Last Updated: 2010-12-16 02:36:56 (Update Now)

Torrent added: 2009-08-27 23:02:20




Torrent Files List


00. Bruce Springsteen - Usa Blues.nfo (Size: 405.89 MB) (Files: 21)

 00. Bruce Springsteen - Usa Blues.nfo

4.13 KB

 00. Bruce Springsteen - Usa Blues.sfv

3.59 KB

 Bruce Springsteen - Usa Blues.log

5.11 KB

 Bruce Springsteen - Usa Blues.m3u

1.47 KB

 Usa Blues01Bruce SpringsteenSpirit In The Night.flac

36.57 MB

 Usa Blues02Bruce SpringsteenFor You.flac

33.00 MB

 Usa Blues03Bruce SpringsteenDarkness On The Edge Of Town.flac

26.28 MB

 Usa Blues04Bruce SpringsteenIf I Should Fall Behind.flac

22.04 MB

 Usa Blues05Bruce SpringsteenThe River.flac

32.70 MB

 Usa Blues06Bruce SpringsteenPromised Land.flac

25.23 MB

 Usa Blues07Bruce SpringsteenBorn In The Usa.flac

17.10 MB

 Usa Blues08Bruce SpringsteenMansion On The Hill.flac

24.80 MB

 Usa Blues09Bruce SpringsteenThis Hard Land.flac

34.06 MB

 Usa Blues10Bruce SpringsteenPoint Blank.flac

25.47 MB

 Usa Blues11Bruce SpringsteenMany Rivers To Cross.flac

25.68 MB

 Usa Blues12Bruce SpringsteenThunder Road.flac

33.77 MB

 Usa Blues13Bruce SpringsteenSatan's Jewel Crown.flac

24.19 MB

 Usa Blues14Bruce SpringsteenSeeds.flac

23.41 MB

 Usa Blues15Bruce SpringsteenAdam Raised A Cain.flac

20.25 MB

 usablues_back.jpg

269.26 KB

 usablues_front.jpg

1.05 MB
 

Announce URL:

Torrent description

Springsteen's recordings have tended to alternate between commercially accessible rock albums
and somber folk-oriented works. Much of his iconic status stems from the concerts and marathon
shows in which he and the E Street Band present intense ballads, rousing anthems, and party
rock and roll songs, amongst which Springsteen intersperses long, whimsical or deeply emotional
stories.

---------------------------------------------------------------------
Tracklisting
---------------------------------------------------------------------

1. (00:06:02) Bruce Springsteen - Spirit In The Night
2. (00:05:35) Bruce Springsteen - For You
3. (00:04:37) Bruce Springsteen - Darkness On The Edge Of Town
4. (00:04:25) Bruce Springsteen - If I Should Fall Behind
5. (00:05:48) Bruce Springsteen - The River
6. (00:04:01) Bruce Springsteen - Promised Land
7. (00:03:21) Bruce Springsteen - Born In The Usa
8. (00:04:32) Bruce Springsteen - Mansion On The Hill
9. (00:06:05) Bruce Springsteen - This Hard Land
10. (00:05:05) Bruce Springsteen - Point Blank
11. (00:05:27) Bruce Springsteen - Many Rivers To Cross
12. (00:06:37) Bruce Springsteen - Thunder Road
13. (00:04:20) Bruce Springsteen - Satan's Jewel Crown
14. (00:03:55) Bruce Springsteen - Seeds
15. (00:03:30) Bruce Springsteen - Adam Raised A Cain

Playing Time.........: 01:13:19
Total Size...........: 404.56 MB

---------------------------------------------------------------------
Log
---------------------------------------------------------------------
Log file:
Exact Audio Copy V0.99 prebeta 3 from 28. July 2007

EAC extraction logfile from 8. January 2008, 10:53

Bruce Springsteen / Usa Blues

Used drive : SONY DVD-ROM DDU1615 Adapter: 2 ID: 0

Read mode : Burst

Read offset correction : 6
Overread into Lead-In and Lead-Out : No
Fill up missing offset samples with silence : Yes
Delete leading and trailing silent blocks : No
Null samples used in CRC calculations : No
Used interface : Installed external ASPI interface
Gap handling : Not detected, thus appended to previous track

Used output format : User Defined Encoder
Selected bitrate : 768 kBit/s
Quality : High
Add ID3 tag : No
Command line compressor : C:\Program Files\FLAC\flac.exe
Additional command line options : -6 -V -T "ARTIST=%a" -T "TITLE=%t" -T "ALBUM=%g" -T "DATE=%y"

-T "TRACKNUMBER=%n" -T "GENRE=%m" -T "COMMENT=%e" %s -o %d


TOC of the extracted CD

Track | Start | Length | Start sector | End sector
---------------------------------------------------------
1 | 0:00.00 | 6:02.14 | 0 | 27163
2 | 6:02.14 | 5:35.27 | 27164 | 52315
3 | 11:37.41 | 4:37.32 | 52316 | 73122
4 | 16:14.73 | 4:24.67 | 73123 | 92989
5 | 20:39.65 | 5:47.42 | 92990 | 119056
6 | 26:27.32 | 4:00.49 | 119057 | 137105
7 | 30:28.06 | 3:20.40 | 137106 | 152145
8 | 33:48.46 | 4:31.62 | 152146 | 172532
9 | 38:20.33 | 6:04.52 | 172533 | 199884
10 | 44:25.10 | 5:05.17 | 199885 | 222776
11 | 49:30.27 | 5:27.17 | 222777 | 247318
12 | 54:57.44 | 6:36.44 | 247319 | 277062
13 | 61:34.13 | 4:20.20 | 277063 | 296582
14 | 65:54.33 | 3:55.07 | 296583 | 314214
15 | 69:49.40 | 3:29.49 | 314215 | 329938


Track 1

Filename D:\Temp\Usa Blues01Bruce SpringsteenSpirit In The Night.wav

Peak level 96.7 %
Copy CRC EB92F7F5
Track not present in AccurateRip database
Copy OK

Track 2

Filename D:\Temp\Usa Blues02Bruce SpringsteenFor You.wav

Peak level 99.3 %
Copy CRC 55B016DA
Track not present in AccurateRip database
Copy OK

Track 3

Filename D:\Temp\Usa Blues03Bruce SpringsteenDarkness On The Edge Of Town.wav

Peak level 97.2 %
Copy CRC 1A8B4997
Track not present in AccurateRip database
Copy OK

Track 4

Filename D:\Temp\Usa Blues04Bruce SpringsteenIf I Should Fall Behind.wav

Peak level 95.6 %
Copy CRC 30AF6B5E
Track not present in AccurateRip database
Copy OK

Track 5

Filename D:\Temp\Usa Blues05Bruce SpringsteenThe River.wav

Peak level 98.2 %
Copy CRC 6A093912
Track not present in AccurateRip database
Copy OK

Track 6

Filename D:\Temp\Usa Blues06Bruce SpringsteenPromised Land.wav

Peak level 100.0 %
Copy CRC F8B695B4
Track not present in AccurateRip database
Copy OK

Track 7

Filename D:\Temp\Usa Blues07Bruce SpringsteenBorn In The Usa.wav

Peak level 82.7 %
Copy CRC 53ACF20D
Track not present in AccurateRip database
Copy OK

Track 8

Filename D:\Temp\Usa Blues08Bruce SpringsteenMansion On The Hill.wav

Peak level 97.4 %
Copy CRC 57049187
Track not present in AccurateRip database
Copy OK

Track 9

Filename D:\Temp\Usa Blues09Bruce SpringsteenThis Hard Land.wav

Peak level 92.1 %
Copy CRC 7B83FB2A
Track not present in AccurateRip database
Copy OK

Track 10

Filename D:\Temp\Usa Blues10Bruce SpringsteenPoint Blank.wav

Peak level 72.0 %
Copy CRC 4FC00609
Track not present in AccurateRip database
Copy OK

Track 11

Filename D:\Temp\Usa Blues11Bruce SpringsteenMany Rivers To Cross.wav

Peak level 83.1 %
Copy CRC A2BBD596
Track not present in AccurateRip database
Copy OK

Track 12

Filename D:\Temp\Usa Blues12Bruce SpringsteenThunder Road.wav

Peak level 93.4 %
Copy CRC 303A4008
Track not present in AccurateRip database
Copy OK

Track 13

Filename D:\Temp\Usa Blues13Bruce SpringsteenSatan's Jewel Crown.wav

Peak level 85.2 %
Copy CRC 802F0081
Track not present in AccurateRip database
Copy OK

Track 14

Filename D:\Temp\Usa Blues14Bruce SpringsteenSeeds.wav

Peak level 72.3 %
Copy CRC 26763DDB
Track not present in AccurateRip database
Copy OK

Track 15

Filename D:\Temp\Usa Blues15Bruce SpringsteenAdam Raised A Cain.wav

Peak level 67.2 %
Copy CRC F91490BE
Track not present in AccurateRip database
Copy OK


None of the tracks are present in the AccurateRip database

No errors occurred

End of status report

related torrents

Torrent name

health leech seeds Size
 

comments (0)

Main Menu