Horror

Martyrs 2008 DVDRIP XviD ZEKTORM

  • Download 5x Faster
  • Download torrent
  • Direct Download
  • Rate this torrent +  |  -
Martyrs 2008 DVDRIP XviD ZEKTORM

Anonymous and Direct Download 300GB+ free


Torrent info

Name:Martyrs 2008 DVDRIP XviD ZEKTORM

Total Size: 705.02 MB

Magnet: Magnet Link

Seeds: 0

Leechers: 0

Stream: Watch Online @ Movie4u

Last Updated: 0000-00-00 00:00:00 (Update Now)

Torrent added: 2009-08-27 23:00:36




Torrent Files List


Martyrs.2008.DVDRIP.XviD-ZEKTORM.avi (Size: 705.02 MB) (Files: 4)

 Martyrs.2008.DVDRIP.XviD-ZEKTORM.avi

701.19 MB

 READ.hlp

11.42 KB

 Subs

  Martyrs.2008.DVDRIP.XviD-ZEKTORM.idx

52.93 KB

  Martyrs.2008.DVDRIP.XviD-ZEKTORM.sub

3.77 MB
 

Announce URL:

Torrent description

Title : Martyrs
Year : 2008
Genre : Drama | Horror
iMDB URL : http://www.imdb.com/title/tt1029234/

Complete name : Martyrs.2008.DVDRIP.XviD-ZEKTORM.avi
Format : AVI
File size : 701 MiB
Duration : 1h 36mn
Overall bit rate : 1019 Kbps
Subtitles : English, Spanish (Format: VobSub)
Source : DVD NTSC

Video
Format : MPEG-4 Visual
Format profile : Streaming [email protected]
Codec ID : DX50
Codec ID/Hint : DivX 5
Duration : 1h 36mn
Bit rate : 884 Kbps
Width : 720 pixels
Height : 384 pixels
Display aspect ratio : 1.875
Frame rate : 23.976 fps
Resolution : 24 bits
Colorimetry : 4:2:0
Scan type : Progressive
Bits/(Pixel*Frame) : 0.133
Stream size : 608 MiB (87%)
Writing library : XviD

Audio
Format : MPEG Audio
Format version : Version 1
Format profile : Layer 3
Codec ID : 55
Codec ID/Hint : MP3
Duration : 1h 36mn
Bit rate mode : Constant
Bit rate : 128 Kbps
Minimum bit rate : 128 Kbps
Channel(s) : 2 channels
Sampling rate : 48.0 KHz
Resolution : 16 bits
Stream size : 88.1 MiB (13%)
Writing library : LAME3.98r
Encoding settings : CBR

related torrents

Torrent name

health leech seeds Size
 


comments (0)

Main Menu