Horror

LONG TIME DEAD DEWSTRR

  • Download 5x Faster
  • Download torrent
  • Direct Download
  • Rate this torrent +  |  -
LONG TIME DEAD DEWSTRR

Anonymous and Direct Download 300GB+ free


Torrent info

Name:LONG TIME DEAD DEWSTRR

Total Size: 966.54 MB

Magnet: Magnet Link

Seeds: 0

Leechers: 1

Stream: Watch Online @ Movie4u

Last Updated: 2016-03-07 18:39:16 (Update Now)

Torrent added: 2009-08-27 22:49:09




Torrent Files List


L T D 1.jpg (Size: 966.54 MB) (Files: 14)

 L T D 1.jpg

8.23 KB

 L T D 1.sfv

1.55 KB

 L T D 10.jpg

11.63 KB

 L T D 2.jpg

14.18 KB

 L T D 3.jpg

13.67 KB

 L T D 4.jpg

15.21 KB

 L T D 5.jpg

16.30 KB

 L T D 6.jpg

10.98 KB

 L T D 7.jpg

8.43 KB

 L T D 8.jpg

20.30 KB

 L T D 9.jpg

17.38 KB

 LONG TIME DEAD.DEWSTRR.divx

966.40 MB

 LONG TIME DEAD.NFO

3.02 KB

 Torrent_downloaded_from_Demonoid.com.txt

0.05 KB
 

tracker

leech seeds
 

Torrent description

LONG TIME DEAD DVDRIP

Horror | Thriller

A group of British college students who are close friends embark on a night of intense partying including alcohol and drugs, and while under the influence, intent on a bit of fun, try to establish a link with the spirit world using a homemade Ouija board. However, fun is the last thing on their minds when the Ouija board spells out the words "All Die", and they give up on the board before closing the link to the spirit world and, unknown to them, unleash something evil into their world, and it isn't long before one of them is murdered by an unseen force. Soon they all find themselves terrified for their lives, as the spirit they have let out begins to kill them off, one by one.

http://www.imdb.com/title/tt0251806/

Format : AVI
Format/Info : Audio Video Interleave
File size : 966 MiB
Duration : 1h 34mn
Overall bit rate : 1 437 Kbps

Video
Format : MPEG-4 Visual
Format settings, BVOP : Yes
Format settings, QPel : No
Format settings, GMC : No warppoints
Format settings, Matrix : Default
Codec ID : DX50
Codec ID/Hint : DivX 5
Duration : 1h 34mn
Bit rate : 1 300 Kbps
Width : 720 pixels
Height : 384 pixels
Display aspect ratio : 1.875
Frame rate : 23.976 fps
Resolution : 24 bits
Colorimetry : 4:2:0
Scan type : Progressive
Bits/(Pixel*Frame) : 0.196
Stream size : 874 MiB (90%)
Title : Video
Writing library : DivX 6.8.2 (UTC 2008-05-17)

Audio
Format : MPEG Audio
Format version : Version 1
Format profile : Layer 3
Codec ID : 55
Codec ID/Hint : MP3
Duration : 1h 33mn
Bit rate mode : Constant
Bit rate : 128 Kbps
Channel(s) : 2 channels
Sampling rate : 48.0 KHz
Resolution : 16 bits
Stream size : 86.1 MiB (9%)
Alignment : Split accross interleaves
Interleave, duration : 42 ms (1.00 video frame)
Interleave, preload duration : 500 ms
Title : Audio
Writing library : LAME3.92

General
Complete name : LONG TIME DEAD.DEWSTRR\L T D 1.sfv
File size : 1.55 KiB

General
Complete name : LONG TIME DEAD.DEWSTRR\Torrent_downloaded_from_Demonoid.com.txt
File size : 47.0 Bytes
LONG TIME DEAD DEWSTRR preview 0
LONG TIME DEAD DEWSTRR preview 1
LONG TIME DEAD DEWSTRR preview 2
LONG TIME DEAD DEWSTRR preview 3
LONG TIME DEAD DEWSTRR preview 4
LONG TIME DEAD DEWSTRR preview 5
LONG TIME DEAD DEWSTRR preview 6
LONG TIME DEAD DEWSTRR preview 7
LONG TIME DEAD DEWSTRR preview 8
LONG TIME DEAD DEWSTRR preview 9
burned with windows [with a couple of other movies on a disk] and played on my philips divx ultra certified dvd player
be sure to set your dvd player on the correct aspect ratio

related torrents

Torrent name

health leech seeds Size
 


comments (0)

Main Menu