Horror

Lockout German 2006 DVDRiP XViD

  • Download 5x Faster
  • Download torrent
  • Direct Download
  • Rate this torrent +  |  -
Lockout German 2006 DVDRiP XViD

Free and Direct Download with Usenet.nl 300GB+ free


Torrent info

Name:Lockout German 2006 DVDRiP XViD

Total Size: 699.77 MB

Magnet: Magnet Link

Seeds: 0

Leechers: 0

Stream: Watch Online @ Movie4u

Last Updated: 2009-11-30 03:15:03 (Update Now)

Torrent added: 2009-08-27 22:48:40





Torrent Files List


Lockout.German.2006.DVDRiP.XViD.avi (Size: 699.77 MB) (Files: 2)

 Lockout.German.2006.DVDRiP.XViD.avi

699.77 MB

 nfo.nfo

2.03 KB
 

Announce URL: http://darkroom.webhop.org/announce.php

Torrent description

Vollständiger Name : Lockout.German.2006.DVDRiP.XViD.avi
Format : AVI
Format/Info : Audio Video Interleave
Dateigre : 700 MiB
Duration : 1h 31min
Gesamte Bitrate : 1073 Kbps
Verwendetes Programm : VirtualDubMod 1.5.10.2 (build 2540/release)
verwendete Encoder-Bibliothek : VirtualDubMod build 2540/release

Video
Format : MPEG-4 Visual
Format profile : Streaming [email protected]
Format settings, BVOP : Yes
Format settings, QPel : No
Format settings, GMC : 0 warppoint
Format settings, Matrix : Default
Codec ID : XVID
Codec ID/Hint : XviD
Duration : 1h 31min
Bitrate : 934 Kbps
Breite : 608 Pixel
Höhe : 336 Pixel
Bildseitenverhältnis : 16/9
Bildwiederholungsrate : 25.000 FPS
Auflösung : 8 bits
Colorimetry : 4:2:0
Scan type : Progressive
Bits/(Pixel*Frame) : 0.183
Stream size : 609 MiB
verwendete Encoder-Bibliothek : XviD 1.1.2
verwendete Encoder-Bibliothek /D : UTC 2006-11-01

Audio
Format : MPEG Audio
Format version : Version 1 / Layer 3
Codec ID : 55
Codec ID/Hint : MP3
Duration : 1h 31min
Bitraten-Modus : VBR
Bitrate : 126 Kbps
Nominal bit rate : 128 Kbps
Kanäle : 2 Kanäle
Samplingrate : 48.0 KHz
Auflösung : 16 bits
Stream size : 82.0 MiB
verwendete Encoder-Bibliothek : LAME3.90.
Kodierungseinstellungen : ABR

related torrents

Torrent name

health leech seeds Size

Lockout German

0 0 699.00 MB 0
 

comments (0)

Main Menu