Horror

LEVIATHAN DEWSTRR

  • Download 5x Faster
  • Download torrent
  • Direct Download
  • Rate this torrent +  |  -
LEVIATHAN DEWSTRR

Free and Direct Download with Usenet.nl 300GB+ free


Torrent info

Name:LEVIATHAN DEWSTRR

Total Size: 1.37 GB

Magnet: Magnet Link

Seeds: 2

Leechers: 6

Stream: Watch Online @ Movie4u

Last Updated: 2009-11-30 04:01:17 (Update Now)

Torrent added: 2009-08-27 22:43:39





Torrent Files List


LEVIATHAN RT.jpg (Size: 1.37 GB) (Files: 14)

 LEVIATHAN RT.jpg

34.37 KB

 LEVIATHAN RT.sfv

1.52 KB

 LEVIATHAN.DEWSTRR.avi

1.37 GB

 LV 1.jpg

20.81 KB

 LV 10.jpg

17.21 KB

 LV 2.jpg

15.45 KB

 LV 3.jpg

13.17 KB

 LV 4.jpg

14.67 KB

 LV 5.jpg

30.72 KB

 LV 6.jpg

29.36 KB

 LV 7.jpg

19.80 KB

 LV 8.jpg

22.39 KB

 LV 9.jpg

14.58 KB

 Torrent_downloaded_from_Demonoid.com.txt

0.05 KB
 

Announce URL: http://inferno.demonoid.com:3408/announce

Torrent description

LEVIATHAN DVDRIP

Horror | Sci-Fi | Thriller

Underwater deep-sea miners encounter a Soviet wreck and bring back a dangerous cargo to their base on the ocean floor with horrifying results.The crew of the mining base must fight to survive against a genetic mutation of several of the crew mutated together that hunts them down one by one.

LEVIATHAN DEWSTRR preview 0

http://www.imdb.com/title/tt0097737/

Format : AVI
Format/Info : Audio Video Interleave
File size : 1.37 GiB
Duration : 1h 37mn
Overall bit rate : 1 999 Kbps
Writing application : VirtualDubMod 1.5.4.1 (build 2178/release)
Writing library : VirtualDubMod build 2178/release

Video
Format : MPEG-4 Visual
Format profile : Streaming [email protected]
Format settings, BVOP : Yes
Format settings, QPel : No
Format settings, GMC : No warppoints
Format settings, Matrix : Custom
Codec ID : XVID
Codec ID/Hint : XviD
Duration : 1h 37mn
Bit rate : 1 801 Kbps
Width : 720 pixels
Height : 304 pixels
Display aspect ratio : 2.35
Frame rate : 23.976 fps
Resolution : 24 bits
Colorimetry : 4:2:0
Scan type : Progressive
Bits/(Pixel*Frame) : 0.343
Stream size : 1.23 GiB (90%)
Writing library : XviD 1.2.1 (UTC 2008-12-04)

Audio
Format : AC-3
Format/Info : Audio Coding 3
Format profile : Dolby Digital
Codec ID : 2000
Duration : 1h 37mn
Bit rate mode : Constant
Bit rate : 192 Kbps
Channel(s) : 2 channels
Channel positions : L R
Sampling rate : 48.0 KHz
Stream size : 134 MiB (10%)
Alignment : Split accross interleaves
Interleave, duration : 96 ms (2.30 video frames)
Interleave, preload duration : 96 ms
Language : English

General
Complete name : LEVIATHAN.DEWSTRR\LEVIATHAN RT.sfv
File size : 1.52 KiB

General
Complete name : LEVIATHAN.DEWSTRR\Torrent_downloaded_from_Demonoid.com.txt
File size : 47.0 Bytes
LEVIATHAN DEWSTRR preview 1
LEVIATHAN DEWSTRR preview 2
LEVIATHAN DEWSTRR preview 3
LEVIATHAN DEWSTRR preview 4
LEVIATHAN DEWSTRR preview 5
LEVIATHAN DEWSTRR preview 6
LEVIATHAN DEWSTRR preview 7
LEVIATHAN DEWSTRR preview 8
LEVIATHAN DEWSTRR preview 9
LEVIATHAN DEWSTRR preview 10
burned with windows [with a couple of other movies on a disk] and played on my philips divx ultra certified dvd player
be sure to set your dvd player on the correct aspect ratio

related torrents

Torrent name

health leech seeds Size

Leviathan Trilogy

0 0 5.07 MB 0

Leviathan Warships

4067 6468 29.46 MB 0
 

comments (0)

Main Menu