Horror

Legend of the Bog 2009 DVDRIP XviD ZEKTORM

  • Download 5x Faster
  • Download torrent
  • Direct Download
  • Rate this torrent +  |  -
Legend of the Bog 2009 DVDRIP XviD ZEKTORM

Free and Direct Download with Usenet.nl 300GB+ free


Torrent info

Name:Legend of the Bog 2009 DVDRIP XviD ZEKTORM

Total Size: 708.34 MB

Magnet: Magnet Link

Seeds: 0

Leechers: 1

Stream: Watch Online @ Movie4u

Last Updated: 2011-05-06 18:53:54 (Update Now)

Torrent added: 2009-08-27 22:39:45





Torrent Files List


LOTB-ZEKTORM.avi (Size: 708.34 MB) (Files: 5)

 LOTB-ZEKTORM.avi

701.13 MB

 READ.hlp

11.12 KB

 Subs

  LOTB-ZEKTORM.idx

85.60 KB

  LOTB-ZEKTORM.sub

7.11 MB

 Torrent downloaded from Demonoid.com.txt

0.05 KB
 

Announce URL: http://inferno.demonoid.com:3414/announce

Torrent description

Format : AVI
File size : 701 MiB
Duration : 1h 31mn
Overall bit rate : 1068 Kbps
Subtitles : English, Spanish (Format: VobSub)
Source : DVD NTSC

Video
Format : MPEG-4 Visual
Format profile : Streaming [email protected]
Codec ID : XVID
Codec ID/Hint : XviD
Duration : 1h 31mn
Bit rate : 951 Kbps
Width : 720 pixels
Height : 416 pixels
Display aspect ratio : 16/9
Frame rate : 23.976 fps
Resolution : 24 bits
Colorimetry : 4:2:0
Scan type : Progressive
Bits/(Pixel*Frame) : 0.132
Stream size : 624 MiB (89%)
Writing library : XviD

Audio
Format : MPEG Audio
Format version : Version 1
Format profile : Layer 3
Codec ID : 55
Codec ID/Hint : MP3
Duration : 1h 31mn
Bit rate mode : Variable
Bit rate : 105 Kbps
Minimum bit rate : 128 Kbps
Channel(s) : 2 channels
Sampling rate : 48.0 KHz
Resolution : 16 bits
Stream size : 68.7 MiB (10%)
Writing library : LAME3.98r
Encoding settings : ABR

related torrents

Torrent name

health leech seeds Size
 

comments (0)

Main Menu