Horror

Last House on Dead End Street [1977] [UNCUT] [DVDRip] [KooKoo] [1337x]

  • Download 5x Faster
  • Download torrent
  • Direct Download
  • Rate this torrent +  |  -
Last House on Dead End Street [1977] [UNCUT] [DVDRip] [KooKoo] [1337x]

Free and Direct Download with Usenet.nl 300GB+ free


Torrent info

Name:Last House on Dead End Street [1977] [UNCUT] [DVDRip] [KooKoo] [1337x]

Total Size: 711.23 MB

Magnet: Magnet Link

Seeds: 4

Leechers: 0

Stream: Watch Online @ Movie4u

Last Updated: 2015-09-06 17:37:25 (Update Now)

Torrent added: 2009-08-27 22:35:23





Torrent Files List


1337x.org.txt (Size: 711.23 MB) (Files: 4)

 1337x.org.txt

0.02 KB

 KooKoo.nfo

9.87 KB

 Last House on Dead End Street [1977] [UNCUT] [DVDRip] [KooKoo] [1337x].avi

699.24 MB

 Sample.avi

11.98 MB
 

tracker

leech seeds
 

Torrent description

@@@ @@@ @@@@@@ @@@@@@ @@@ @@@ @@@@@@ @@@@@@
@@@ @@@ @@@@@@@@ @@@@@@@@ @@@ @@@ @@@@@@@@ @@@@@@@@
@@! !@@ @@! @@@ @@! @@@ @@! !@@ @@! @@@ @@! @@@
!@! @!! !@! @!@ !@! @!@ !@! @!! !@! @!@ !@! @!@
@!@@!@! @!@ !@! @!@ !@! @!@@!@! @!@ !@! @!@ !@!
!!@!!! !@! !!! !@! !!! !!@!!! !@! !!! !@! !!!
!!: :!! !!: !!! !!: !!! !!: :!! !!: !!! !!: !!!
:!: !:! :!: !:! :!: !:! :!: !:! :!: !:! :!: !:!
:!: ::: ::::: :: ::::: :: :!: ::: ::::: :: ::::: ::
:!: ::: : : : : : : :!: ::: : : : : : :
:: ::





___ _ ___ _
/ __|___ _ _ ___ _ _ __ _| | | __(_) |_ __
| (_ / -_) ' / -_) '_/ _` | | | _|| | | '
\___\___|_||_\___|_| \__,_|_| |_| |_|_|_|_|_|

___ __ _ _
|_ _|_ _ / _|___ _ _ _ __ __ _| |_(_)___ _ _
| || ' | _/ _ '_| ' / _` | _| / _ '
|___|_||_|_| \___/_| |_|_|_\__,_|\__|_\___/_||_|

Movie Name: The Last House on Dead End Street
Genre: Horror
Release Date: 1977
Runtime: 77 Mins.
Country: U.S.A
Certification: NR
IMDB Link: http://www.imdb.com/title/tt0076295/



___ _
/ __|_ _ _ _ ___ _ __ __(_)___
\__ || | ' / _ '_ (_-< (_-<
|___/\_, |_||_\___/ .__/__/_/__/
|__/ |_|

After serving 1 year in jail a guy decides to repay
the society by making some snuff-films. Four people
are captured, tied up and held as material for his
project. One by one they are killed in scenes for the
camera. A woman has her limbs sawn off while kept
conscious! Another victim is brutally murdered by a
Power drill!.................



___ _ ___ __ _ _
| _ (_)_ __ |_ _|_ _ / _|___ _ _ _ __ __ _| |_(_)___ _ _
| / | '_ | || ' | _/ _ '_| ' / _` | _| / _ '
|_|_\_| .__/ |___|_||_|_| \___/_| |_|_|_\__,_|\__|_\___/_||_|
|_|

Format : AVI
Format/Info : Audio Video Interleave
File size : 699 MiB
Duration : 1h 17mn
Overall bit rate : 1261 Kbps
Writing application : VirtualDubMod 1.5.10.2 build 2540
Writing library : VirtualDubMod build 2540/release
Copyright : Ripped By KooKoo

Video
Format : MPEG-4 Visual
Format profile : Streaming [email protected]
Format settings, BVOP : Yes
Format settings, QPel : No
Format settings, GMC : No warppoints
Format settings, Matrix : Default
Muxing mode : Packet Bitstream
Codec ID : XVID
Codec ID/Hint : XviD
Duration : 1h 17mn
Bit rate : 1124 Kbps
Width : 544 pixels
Height : 400 pixels
Display aspect ratio : 4/3
Frame rate : 23.976 fps
Resolution : 8 bits
Colorimetry : 4:2:0
Scan type : Progressive
Bits/(Pixel*Frame) : 0.215
Stream size : 623 MiB (89%)
Writing library : XviD 1.2.0.dev47 (UTC 2006-11-01)

Audio
Format : MPEG Audio
Format version : Version 1
Format profile : Layer 3
Codec ID : 55
Codec ID/Hint : MP3
Duration : 1h 17mn
Bit rate mode : Constant
Bit rate : 128 Kbps
Minimum bit rate : 128 Kbps
Channel(s) : 2 channels
Sampling rate : 48.0 KHz
Resolution : 16 bits
Stream size : 71.0 MiB (10%)
Alignment : Aligned on interleaves
Interleave, duration : 42 ms (1.00 video frame)
Interleave, preload duration : 504 ms
Writing library : LAME3.97
Encoding settings : CBR


_ _ _ _ _ _ _ _ _ _
/_ __| |__| (_) |_(_)___ _ _ __ _| | | | |___| |_ ___ ___
/ _ / _` / _` | | _| / _ ' / _` | | | .` / _ _/ -_|_-<
/_/ \_\__,_\__,_|_|\__|_\___/_||_\__,_|_| |_|\_\___/\__\___/__/

Audio language is "English" and subtitles are not included.
This was ripped from the "Barrel Edition" NTSC/Region1/DVD


R.I.P Date: 9/20/08

Last House on Dead End Street [1977] [UNCUT] [DVDRip] [KooKoo] [1337x]


_ _________________ __
/ |___ /___ /___ / / ___ _ __ __ _
| | |_ |_ / / / / _ | '__/ _` |
| |___) |__) |/ / / | (_) | | | (_| |
|_|____/____//_/ /_/\_(_)___/|_| \__, |
|___/
Don't forget to visit!

related torrents

Torrent name

health leech seeds Size
 

comments (0)

Main Menu