Horror

Låt den rätte komma in 2008 DVDRIP XviD ZEKTORM

  • Download 5x Faster
  • Download torrent
  • Direct Download
  • Rate this torrent +  |  -
Låt den rätte komma in 2008 DVDRIP XviD ZEKTORM

Free and Direct Download with Usenet.nl 300GB+ free


Torrent info

Name:Låt den rätte komma in 2008 DVDRIP XviD ZEKTORM

Total Size: 706.00 MB

Magnet: Magnet Link

Seeds: 0

Leechers: 0

Stream: Watch Online @ Movie4u

Last Updated: 0000-00-00 00:00:00 (Update Now)

Torrent added: 2009-08-27 22:10:11





Torrent Files List


Låt.den.rätte.komma.in.2008.DVDRIP.XviD-ZEKTORM.avi (Size: 706.00 MB) (Files: 4)

 Låt.den.rätte.komma.in.2008.DVDRIP.XviD-ZEKTORM.avi

702.13 MB

 READ.hlp

12.03 KB

 Subs

  Låt.den.rätte.komma.in.2008.DVDRIP.XviD-ZEKTORM.idx

58.05 KB

  Låt.den.rätte.komma.in.2008.DVDRIP.XviD-ZEKTORM.sub

3.81 MB
 

Announce URL:

Torrent description

Title : Låt den rätte komma in
Also Known As : Let the Right One In
Year : 2008
Genre : Drama | Horror | Romance | Thriller
iMDB URL : http://www.imdb.com/title/tt1139797/
Awards : 46 wins & 11 nominations

Complete name : Låt.den.rätte.komma.in.2008.DVDRIP.XviD-ZEKTORM.avi
Format : AVI
File size : 702 MiB
Duration : 1h 54mn
Overall bit rate : 857 Kbps
Subtitles : English, Spanish (Format: VobSub)
Source : DVD NTSC

Video
Format : MPEG-4 Visual
Format profile : Streaming [email protected]
Codec ID : DX50
Codec ID/Hint : DivX 5
Duration : 1h 54mn
Bit rate : 722 Kbps
Width : 720 pixels
Height : 320 pixels
Display aspect ratio : 2.25
Frame rate : 23.976 fps
Resolution : 24 bits
Colorimetry : 4:2:0
Scan type : Progressive
Bits/(Pixel*Frame) : 0.131
Stream size : 591 MiB (84%)
Writing library : XviD

Audio
Language : Swedish
Format : MPEG Audio
Format version : Version 1
Format profile : Layer 3
Codec ID : 55
Codec ID/Hint : MP3
Duration : 1h 54mn
Bit rate mode : Constant
Bit rate : 128 Kbps
Minimum bit rate : 128 Kbps
Channel(s) : 2 channels
Sampling rate : 48.0 KHz
Resolution : 16 bits
Stream size : 105 MiB (15%)
Writing library : LAME3.98r
Encoding settings : CBR

related torrents

Torrent name

health leech seeds Size
 

comments (0)

Main Menu