Horror

Kilometer 31 Deutsch 2008 DVDrip Xvid

  • Download 5x Faster
  • Download torrent
  • Direct Download
  • Rate this torrent +  |  -
Kilometer 31 Deutsch 2008 DVDrip Xvid

Anonymous and Free Direct Download 300GB+


Torrent info

Name:Kilometer 31 Deutsch 2008 DVDrip Xvid

Total Size: 700.05 MB

Magnet: Magnet Link

Seeds: 0

Leechers: 0

Stream: Watch Online @ Movie4u

Last Updated: 2011-01-06 06:52:55 (Update Now)

Torrent added: 2009-08-27 22:05:29



VPN For Torrents

Torrent Files List


42871.jpg (Size: 700.05 MB) (Files: 4)

 42871.jpg

8.49 KB

 954495.jpg

5.68 KB

 info.txt

2.89 KB

 Kilometer 31.avi

700.03 MB
 

Announce URL: http://h-n-h.ath.cx/announce.php

Torrent description

Kilometer.31.Deutsch.2008.DVDrip.Xvid
Im Handel ab: 22.05.2008
Anbieter: e-m-s
Originaltitel: Kilmetro 31
Genre(s): Horror
Regie: Rigoberto Castaeda
Darsteller: Iliana Fox, Ral Mndez, Adri Collado, Mikel Mateos
FSK: 16
Laufzeit: ca. 101 min


Beschreibung
Agata fährt nachts auf einsamer Strecke und überfährt ein Kind. Doch als sie nach dem Jungen sehen will , offenbart sich Ihr das nackte Entsetzen. Im Schock wird sie selbst von einem anderen Wagen erfasst und fällt in ein tiefes Koma. Zudem müssen ihr beide Beine amputiert werden. Ein Umstand, der für ihre Zwillingsschwester Catalina kaum zu ertragen ist. Diese wird seit dem schrecklichen Unfall von grauenhaften Albträumen und Visionen geplagt. Immer wieder sieht sie ihre verstümmelte Schwester und den kleinen Jungen, die sie um Hilfe anflehen. In ihrer Verzweiflung führt Catalina erneut zum schicksalhaften Straßenabschnitt bei Kilometer 31.


Mehr Info: http://www.digitalvd.de/dvds/67507,KM-31-Der-Tod-wartet-bei-Kilometer-31.html

Format : AVI
Format/Info : Audio Video Interleave
Dateigre : 700 MiB
Duration : 1h 40min
Gesamte Bitrate : 973 Kbps
Verwendetes Programm : VirtualDubMod 1.5.10.2 (build 2540/release)
verwendete Encoder-Bibliothek : VirtualDubMod build 2540/release

Video
Format : MPEG-4 Visual
Format profile : Streaming [email protected]
Format settings, BVOP : Ja
Format settings, QPel : Nein
Format settings, GMC : No warpoints
Format settings, Matrix : Default
Codec ID : XVID
Codec ID/Hint : XviD
Duration : 1h 40min
Bitrate : 838 Kbps
Breite : 640 Pixel
Höhe : 272 Pixel
Bildseitenverhältnis : 2.35
Bildwiederholungsrate : 25.000 FPS
Auflösung : 8 bits
Colorimetry : 4:2:0
Scan type : Progressive
Bits/(Pixel*Frame) : 0.193
Stream size : 603 MiB
verwendete Encoder-Bibliothek : XviD 1.1.2 (UTC 2006-11-01)

Audio
Format : MPEG Audio
Format version : Version 1
Format profile : Layer 3
Codec ID : 55
Codec ID/Hint : MP3
Duration : 1h 40min
Bitraten-Modus : Variable
Bitrate : 122 Kbps
Minimum bit rate : 128 Kbps
Kanäle : 2 Kanäle
Samplingrate : 48.0 KHz
Auflösung : 16 bits
Stream size : 87.7 MiB
verwendete Encoder-Bibliothek : LAME3.97b
Kodierungseinstellungen : ABR



http://h-n-h.ath.cx

related torrents

Torrent name

health leech seeds Size

Kilometer 31 DVD Rip

1 0 692.95 MB 0
 


comments (0)

Main Menu