Horror

Jeepers Creepers 2 2003 DVDrip nutEdave avi

  • Download 5x Faster
  • Download torrent
  • Direct Download
  • Rate this torrent +  |  -
Jeepers Creepers 2 2003 DVDrip nutEdave avi

Free and Direct Download with Usenet.nl 300GB+ free


Torrent info

Name:Jeepers Creepers 2 2003 DVDrip nutEdave avi

Total Size: 450.27 MB

Magnet: Magnet Link

Seeds: 0

Leechers: 0

Stream: Watch Online @ Movie4u

Last Updated: 0000-00-00 00:00:00 (Update Now)

Torrent added: 2009-08-27 21:54:39





Torrent Files List


Jeepers Creepers 2 - 2003 DVDrip nutEdave.avi (Size: 450.27 MB) (Files: 1)

 Jeepers Creepers 2 - 2003 DVDrip nutEdave.avi

450.27 MB
 

Announce URL:

Torrent description

Jeepers Creepers 2 is a 2003 horror film directed and written by Victor Salva. The movie is a sequel to the earlier film, Jeepers Creepers. `
Jonathan Breck as The Creeper
Ray Wise as Jack Taggart, Sr.
Luke Edwards as Jack Taggart, Jr.
Eric Nenninger as Scott Braddock
Garikayi Mutambirwa as Deaundre "Double D" Davis
Nicki Aycox as Minxie Hayes
Travis Schiffner as Izzy Bohen
Marieh Delfino as Rhonda Truitt
Billy Aaron Brown as Andy "Bucky" Buck
Lena Cardwell as Chelsea Farmer
Diane Delano as Bus Driver Betty
Jameer Keel as Coach Charlie Hanna
Tom Tarantini as Coach Dwayne Barnes
Justin Long as Darry Jenner
Shaun Fleming as Billy Taggart
Al Santos as Dante Belasco
Josh hammond as Jake Spencer
Kasan Butcher as Kimball "Big K" Ward
Drew Tyler Bell as Jonny Young
Bob Papenbrook as Man in station wagon
Jon Powell as Older Jack Jr ` ` General
Complete name : Jeepers Creepers 2 - 2003
Format : AVI
Format/Info : Audio Video Interleave
File size : 450 MiB
Duration : 1h 39mn
Overall bit rate : 631 Kbps

Video
Format : MPEG-4 Visual
Format profile : Streaming [email protected]
Format settings, BVOP : Yes
Format settings, QPel : No
Format settings, GMC : No warppoints
Format settings, Matrix : Default
Muxing mode : Packed bitstream
Codec ID : XVID
Codec ID/Hint : XviD
Duration : 1h 39mn
Bit rate : 429 Kbps
Width : 576 pixels
Height : 304 pixels
Display aspect ratio : 1.895
Frame rate : 25.000 fps
Resolution : 24 bits
Colorimetry : 4:2:0
Scan type : Progressive
Bits/(Pixel*Frame) : 0.098
Stream size : 306 MiB (68%)
Writing library : XviD 1.1.0 (UTC 2005-11-22)

Audio
Format : MPEG Audio
Format version : Version 1
Format profile : Layer 3
Codec ID : 55
Codec ID/Hint : MP3
Duration : 1h 39mn
Bit rate mode : Constant
Bit rate : 192 Kbps
Channel(s) : 2 channels
Sampling rate : 44.1 KHz
Resolution : 16 bits
Video delay : 26ms
Stream size : 137 MiB (30%)
Alignment : Split accross interleaves
Interleave, duration : 40 ms (1.00 video frame)
Title : Audio Stream
Writing library : LAME3.92 Please seed after downloading

related torrents

Torrent name

health leech seeds Size
 

comments (0)

Main Menu