Horror

Jeepers Creepers 2001 DVDrip nutEdave avi

  • Download 5x Faster
  • Download torrent
  • Direct Download
  • Rate this torrent +  |  -
Jeepers Creepers 2001 DVDrip nutEdave avi

Free and Direct Download with Usenet 300GB+ free


Torrent info

Name:Jeepers Creepers 2001 DVDrip nutEdave avi

Total Size: 354.14 MB

Magnet: Magnet Link

Seeds: 0

Leechers: 0

Stream: Watch Online @ Movie4u

Last Updated: 0000-00-00 00:00:00 (Update Now)

Torrent added: 2009-08-27 21:54:20




Torrent Files List


Jeepers Creepers - 2001 DVDrip nutEdave.avi (Size: 354.14 MB) (Files: 1)

 Jeepers Creepers - 2001 DVDrip nutEdave.avi

354.14 MB
 

Announce URL: http://open.tracker.thepiratebay.org/announce

Torrent description

Jeepers Creepers is a 2001 horror film written and directed by Victor Salva.

The movie takes its name from the song Jeepers Creepers which is featured in the movie. Incidentally, the song was first featured in the Warner Bros. film Going Places, which at one time was owned by this film's distributor United Artists (along with the rest of the pre-1950 Warner library).
` General
Complete name : Jeepers Creepers - 2001
Format : AVI
Format/Info : Audio Video Interleave
File size : 354 MiB
Duration : 1h 26mn
Overall bit rate : 569 Kbps

Video
Format : MPEG-4 Visual
Format profile : Streaming Video@L1
Format settings, BVOP : Yes
Format settings, QPel : No
Format settings, GMC : No warppoints
Format settings, Matrix : Default
Muxing mode : Packed bitstream
Codec ID : XVID
Codec ID/Hint : XviD
Duration : 1h 26mn
Bit rate : 368 Kbps
Width : 576 pixels
Height : 304 pixels
Display aspect ratio : 1.895
Frame rate : 25.000 fps
Resolution : 24 bits
Colorimetry : 4:2:0
Scan type : Progressive
Bits/(Pixel*Frame) : 0.084
Stream size : 229 MiB (65%)
Writing library : XviD 1.1.0 (UTC 2005-11-22)

Audio
Format : MPEG Audio
Format version : Version 1
Format profile : Layer 3
Codec ID : 55
Codec ID/Hint : MP3
Duration : 1h 26mn
Bit rate mode : Constant
Bit rate : 192 Kbps
Channel(s) : 2 channels
Sampling rate : 44.1 KHz
Resolution : 16 bits
Video delay : 26ms
Stream size : 119 MiB (34%)
Alignment : Split accross interleaves
Interleave, duration : 40 ms (1.00 video frame)
Title : Audio Stream
Writing library : LAME3.92 Please seed after downloading

related torrents

Torrent name

health leech seeds Size
 

comments (0)

Main Menu