Horror

JackFrostHorror(1996){DvDRip Xvid}[1337x][blackjesus]

  • Download 5x Faster
  • Download torrent
  • Direct Download
  • Rate this torrent +  |  -
JackFrostHorror(1996){DvDRip Xvid}[1337x][blackjesus]

Anonymous and free Direct Download 300GB+


Torrent info

Name:JackFrostHorror(1996){DvDRip Xvid}[1337x][blackjesus]

Total Size: 701.79 MB

Magnet: Magnet Link

Seeds: 0

Leechers: 4

Stream: Watch Online @ Movie4u

Last Updated: 2011-06-07 08:22:31 (Update Now)

Torrent added: 2009-08-27 21:52:09



VPN For Torrents

Torrent Files List


1337x.org.txt (Size: 701.79 MB) (Files: 4)

 1337x.org.txt

0.02 KB

 BlAcKjEsUs.txt

0.30 KB

 INFO.txt

2.47 KB

 jackfrost.avi

701.79 MB
 

Announce URL: http://genesis.1337x.org:1337/announce

Torrent description

Jack Frost 1996



JackFrostHorror(1996){DvDRip Xvid}[1337x][blackjesus] preview 0



http://www.youtube.com/watch?v=dt-1dNLfi6Q
^^Trailer^^

http://www.imdb.com/title/tt0116671/
^^IMDB^^



Genre: Comedy | Fantasy | Horror more
Tagline: He's chillin...and killin


Duration : 1h 25mn
Overall bit rate : 1 145 Kbps


Video
Format : MPEG-4 Visual
Format profile : Streaming [email protected]
Format settings, BVOP : Yes
Format settings, QPel : No
Format settings, GMC : No warppoints
Format settings, Matrix : Default (H.263)
Muxing mode : Packed bitstream
Codec ID : XVID
Codec ID/Hint : XviD
Duration : 1h 25mn
Bit rate : 1 026 Kbps
Width : 544 pixels
Height : 400 pixels
Display aspect ratio : 4/3
Frame rate : 25.000 fps
Resolution : 24 bits
Colorimetry : 4:2:0
Scan type : Progressive
Bits/(Pixel*Frame) : 0.189
Stream size : 629 MiB (90%)
Writing library : XviD 1.2.1 (UTC 2008-12-04)

Audio
Format : MPEG Audio
Format version : Version 1
Format profile : Layer 3
Codec ID : 55
Codec ID/Hint : MP3
Duration : 1h 25mn
Bit rate mode : Variable
Bit rate : 106 Kbps
Channel(s) : 2 channels
Sampling rate : 48.0 KHz
Resolution : 16 bits
Stream size : 65.0 MiB (9%)
Alignment : Aligned on interleaves
Interleave, duration : 24 ms (0.60 video frame)
Interleave, preload duration : 309 ms




related torrents

Torrent name

health leech seeds Size
 


comments (0)

Main Menu