Horror

INVASION OF THE BODY SNATCHERS DEWSTRR

  • Download 5x Faster
  • Download torrent
  • Direct Download
  • Rate this torrent +  |  -
INVASION OF THE BODY SNATCHERS DEWSTRR

Free and Direct Download with Usenet 300GB+ free


Torrent info

Name:INVASION OF THE BODY SNATCHERS DEWSTRR

Total Size: 1.16 GB

Magnet: Magnet Link

Seeds: 0

Leechers: 0

Stream: Watch Online @ Movie4u

Last Updated: 2015-05-21 05:21:09 (Update Now)

Torrent added: 2009-08-27 21:50:12




Torrent Files List


BS 1.jpg (Size: 1.16 GB) (Files: 14)

 BS 1.jpg

13.95 KB

 BS 1.sfv

1.94 KB

 BS 10.jpg

13.88 KB

 BS 2.jpg

12.49 KB

 BS 3.jpg

14.80 KB

 BS 4.jpg

11.31 KB

 BS 5.jpg

11.50 KB

 BS 6.jpg

11.65 KB

 BS 7.jpg

16.04 KB

 BS 8.jpg

13.07 KB

 BS 9.jpg

15.26 KB

 INVASION OF THE BODY SNATCHERS.DEWSTRR.divx

1.16 GB

 INVASION OF THE BODY SNATCHERS.RT.jpg

14.65 KB

 Torrent_downloaded_from_Demonoid.com.txt

0.05 KB
 

tracker

leech seeds
 

Torrent description

INVASION OF THE BODY SNATCHERS DVDRIP [1978]

Horror | Mystery | Romance

In this remake of the 1956 cult classic, terror slowly and silently strikes San Francisco as the city is mysteriously covered by alien spores that produce strangely beautiful flowers. Unbeknownst to the people, the flowers are the bearers of alien pods that make a spiderlike webbing that captures their victims as they sleep and replicates their human form.
INVASION OF THE BODY SNATCHERS DEWSTRR preview 0

http://www.rottentomatoes.com/m/1010679-invasion_of_the_body_snatchers/

http://www.imdb.com/title/tt0077745/

Format : AVI
Format/Info : Audio Video Interleave
File size : 1.16 GiB
Duration : 1h 55mn
Overall bit rate : 1 438 Kbps

Video
Format : MPEG-4 Visual
Format settings, BVOP : Yes
Format settings, QPel : No
Format settings, GMC : No warppoints
Format settings, Matrix : Default
Muxing mode : Packed bitstream
Codec ID : DX50
Codec ID/Hint : DivX 5
Duration : 1h 55mn
Bit rate : 1 301 Kbps
Width : 720 pixels
Height : 384 pixels
Display aspect ratio : 1.875
Frame rate : 23.976 fps
Resolution : 24 bits
Colorimetry : 4:2:0
Scan type : Progressive
Bits/(Pixel*Frame) : 0.196
Stream size : 1.05 GiB (90%)
Title : Video
Writing library : DivX 6.8.2 (UTC 2008-05-17)

Audio
Format : MPEG Audio
Format version : Version 1
Format profile : Layer 3
Codec ID : 55
Codec ID/Hint : MP3
Duration : 1h 55mn
Bit rate mode : Constant
Bit rate : 128 Kbps
Channel(s) : 2 channels
Sampling rate : 48.0 KHz
Resolution : 16 bits
Stream size : 106 MiB (9%)
Alignment : Split accross interleaves
Interleave, duration : 42 ms (1.00 video frame)
Interleave, preload duration : 500 ms
Title : Audio
Writing library : LAME3.92

General
Complete name : INVASION OF THE BODY SNATCHERS.DEWSTRR\BS 1.sfv
File size : 1.94 KiB


General
Complete name : INVASION OF THE BODY SNATCHERS.DEWSTRR\Torrent_downloaded_from_Demonoid.com.txt
File size : 47.0 Bytes
INVASION OF THE BODY SNATCHERS DEWSTRR preview 1
INVASION OF THE BODY SNATCHERS DEWSTRR preview 2
INVASION OF THE BODY SNATCHERS DEWSTRR preview 3
INVASION OF THE BODY SNATCHERS DEWSTRR preview 4
INVASION OF THE BODY SNATCHERS DEWSTRR preview 5
INVASION OF THE BODY SNATCHERS DEWSTRR preview 6
INVASION OF THE BODY SNATCHERS DEWSTRR preview 7
INVASION OF THE BODY SNATCHERS DEWSTRR preview 8
INVASION OF THE BODY SNATCHERS DEWSTRR preview 9
INVASION OF THE BODY SNATCHERS DEWSTRR preview 10
burned with windows [with a couple of other movies on a disk] and played on my philips divx ultra certified dvd player
be sure to set your dvd player on the correct aspect ratio

related torrents

Torrent name

health leech seeds Size
 

comments (0)

Main Menu